Ария XXV лет - Народный DVD (DVDRip) 2010-11-27 Олимпийский [2010, Heavy Metal, CAMRip]

Reply to topic
DL-List and Torrent activity
Size:  4.18 GB   |    Registered:  8 years 4 months   |    Completed:  1 time

Seeder not seen: 6 years 11 months

 
     
 
 
Author Message

Guest ®

Gender: Unknown

Post 15-Jan-2012 23:28

[Quote]

Ария XXV лет - Народный DVD (DVDRip) 2010-11-27 Олимпийский [2010, Heavy Metal, CAMRip] -
Год: 2010
Страна: Россия
Жанр: Heavy Metal

Продолжительность: 03:02:13-Описание:
Концерт, приуроченный к 25-летию легендарной группы Ария, с участием групп "Aria Family" -Маврина, Мастера, Кипелова. Замечательное шоу, которое, к сожалению, не было запечатлено официально.
- Авторы видео:
Операторы: ТБК, оператор2, N_C, RockNRolf
Операторы (дополнительные): SergeyMetallica, Serebrow91, неизвестен.
Монтаж видео (кроме гр. Мастер): оператор2
Монтаж видео (гр. Мастер): ТБК
-Качество: CAMRip
Формат: AVI,MKV
Видео кодек : H.264
Аудио кодек : MP3, PCM

Маврин

Сет-лист:

01. Моё время
02. Пока Боги спят
03. Дай руку мне
Продолжительность: 00:20:27
Качество: CAMRip
Контейнер: AVI
Видео кодек: H.264
Аудио кодек: PCM
Видео: MPEG4 Video (H264) 768x432 (16:9) 25.00fps, 2400 Kbps
Аудио: PCM 48000Hz stereo 1536Kbps

MediaInfo

Общее
Полное имя : D:\Видео - концерты\Ария XXV лет - Народный DVD (DVDRip) 2010-11-27 Олимпийский\Mavrin_-_Live_2010-11-27_Aria-fest_Olimpiyskiy.avi
Формат : AVI
Формат/Информация : Audio Video Interleave
Размер файла : 578 Мбайт
Продолжительность : 20 м.
Общий поток : 3947 Кбит/сек
Библиотека кодирования : VirtualDub build 23648/release
Видео
Идентификатор : 0
Формат : AVC
Формат/Информация : Advanced Video Codec
Профиль формата : High@L3.0
Параметр CABAC формата : Да
Параметр ReFrames формата : 1 кадр
Идентификатор кодека : H264
Продолжительность : 20 м.
Битрейт : 2400 Кбит/сек
Ширина : 768 пикселей
Высота : 432 пикселя
Соотношение сторон : 16:9
Частота кадров : 25,000 кадров/сек
Цветовое пространство : YUV
Субдискретизация насыщенности : 4:2:0
Битовая глубина : 8 бит
Тип развёртки : Прогрессивная
Бит/(Пиксели*Кадры) : 0.289
Размер потока : 351 Мбайт (61%)
Библиотека кодирования : x264 core 65 r1063bm 84a1ca6
Настройки программы : cabac=1 / ref=1 / deblock=1:0:0 / analyse=0x3:0x13 / me=umh / subme=7 / psy_rd=0.0:0.0 / mixed_ref=0 / me_range=16 / chroma_me=1 / trellis=1 / 8x8dct=1 / cqm=0 / deadzone=21,11 / chroma_qp_offset=0 / threads=2 / thread_queue=2 / nr=0 / decimate=1 / mbaff=0 / bframes=0 / keyint=250 / keyint_min=25 / scenecut=40(pre) / rc=abr / bitrate=2400 / ratetol=1.0 / qcomp=0.60 / qpmin=10 / qpmax=51 / qpstep=4 / ip_ratio=1.40 / aq=1:1.00:0:10.00
Аудио
Идентификатор : 1
Формат : PCM
Параметр Endianness формата : Little
Параметр Sign формата : Signed
Идентификатор кодека : 1
Продолжительность : 20 м.
Вид битрейта : Постоянный
Битрейт : 1536 Кбит/сек
Каналы : 2 канала
Частота : 48,0 КГц
Битовая глубина : 16 бит
Размер потока : 225 Мбайт (39%)
Продолжительность промежутка : 40 мс. (1,00 видеокадр)
Время предзагрузки промежутка : 500 мс.

Скриншоты

- - - -

Мастер

Сет-лист:

01. Кирилл Покровский - Мания Величия
02. Воля и разум
03. Тореро
04. Кресты
05. Мастер
Продолжительность: 00:25:58
Качество: CAMRip
Контейнер: mkv
Видео кодек: H.264
Аудио кодек: PCM
Видео: MPEG4 Video (H264) 768x432 (16:9) 25.00fps, 2400 Kbps
Аудио: PCM 48000Hz stereo 1536Kbps

MediaInfo

Общее
Полное имя : D:\Видео - концерты\Ария XXV лет - Народный DVD (DVDRip) 2010-11-27 Олимпийский\Master_-_Live_2010-11-27_Aria-fest_Olimpiyskiy.mkv
Формат : Matroska
Версия формата : Version 2
Размер файла : 731 Мбайт
Продолжительность : 25 м.
Режим общего битрейта : Постоянный
Общий поток : 3936 Кбит/сек
Дата кодирования : UTC 2010-12-29 18:18:19
Программа кодирования : mkvmerge v3.0.0 ('Hang up your Hang-Ups') built on Dec 12 2009 15:20:35
Библиотека кодирования : libebml v0.7.9 + libmatroska v0.8.1
Видео
Идентификатор : 1
Формат : AVC
Формат/Информация : Advanced Video Codec
Профиль формата : High@L3.2
Параметр CABAC формата : Да
Параметр ReFrames формата : 4 кадра
Идентификатор кодека : V_MPEG4/ISO/AVC
Продолжительность : 25 м.
Вид битрейта : Постоянный
Номинальный битрейт : 2400 Кбит/сек
Ширина : 768 пикселей
Высота : 432 пикселя
Соотношение сторон : 16:9
Частота кадров : 25,000 кадров/сек
Цветовое пространство : YUV
Субдискретизация насыщенности : 4:2:0
Битовая глубина : 8 бит
Тип развёртки : Прогрессивная
Бит/(Пиксели*Кадры) : 0.289
Язык : English
Default : Да
Forced : Нет
Основные цвета : BT.709-5, BT.1361, IEC 61966-2-4, SMPTE RP177
Характеристики трансфера : BT.709-5, BT.1361
Коэффициенты матрицы : BT.709-5, BT.1361, IEC 61966-2-4 709, SMPTE RP177
Аудио
Идентификатор : 2
Формат : PCM
Идентификатор кодека : A_PCM/INT/LIT
Продолжительность : 25 м.
Вид битрейта : Постоянный
Каналы : 2 канала
Частота : 48,0 КГц
Битовая глубина : 16 бит
Язык : Russian
Default : Да
Forced : Нет

Скриншоты

- - - - -

Кипелов

Сет-лист:

01. Жить вопреки
02. Путь в никуда
03. Я здесь
04. Следуй за мной
05. Возьми моё сердце
06. Призрачный взвод
Продолжительность: 00:36:26
Качество: CAMRip
Контейнер: AVI
Видео кодек: H.264
Аудио кодек: PCM
Видео: MPEG4 Video (H264) 768x432 (16:9) 25.00fps, 2400 Kbps
Аудио: PCM 48000Hz stereo 1536Kbps

MediaInfo

Общее
Полное имя : D:\Видео - концерты\Ария XXV лет - Народный DVD (DVDRip) 2010-11-27 Олимпийский\Kipelov_-_Live_2010-11-27_Aria-fest_Olimpiyskiy.avi
Формат : AVI
Формат/Информация : Audio Video Interleave
Размер файла : 1,01 Гбайт
Продолжительность : 36 м.
Общий поток : 3951 Кбит/сек
Библиотека кодирования : VirtualDub build 23648/release
Видео
Идентификатор : 0
Формат : AVC
Формат/Информация : Advanced Video Codec
Профиль формата : High@L3.0
Параметр CABAC формата : Да
Параметр ReFrames формата : 1 кадр
Идентификатор кодека : H264
Продолжительность : 36 м.
Битрейт : 2400 Кбит/сек
Ширина : 768 пикселей
Высота : 432 пикселя
Соотношение сторон : 16:9
Частота кадров : 25,000 кадров/сек
Цветовое пространство : YUV
Субдискретизация насыщенности : 4:2:0
Битовая глубина : 8 бит
Тип развёртки : Прогрессивная
Бит/(Пиксели*Кадры) : 0.289
Размер потока : 627 Мбайт (61%)
Библиотека кодирования : x264 core 65 r1063bm 84a1ca6
Настройки программы : cabac=1 / ref=1 / deblock=1:0:0 / analyse=0x3:0x13 / me=umh / subme=7 / psy_rd=0.0:0.0 / mixed_ref=0 / me_range=16 / chroma_me=1 / trellis=1 / 8x8dct=1 / cqm=0 / deadzone=21,11 / chroma_qp_offset=0 / threads=2 / thread_queue=2 / nr=0 / decimate=1 / mbaff=0 / bframes=0 / keyint=250 / keyint_min=25 / scenecut=40(pre) / rc=abr / bitrate=2400 / ratetol=1.0 / qcomp=0.60 / qpmin=10 / qpmax=51 / qpstep=4 / ip_ratio=1.40 / aq=1:1.00:0:10.00
Аудио
Идентификатор : 1
Формат : PCM
Параметр Endianness формата : Little
Параметр Sign формата : Signed
Идентификатор кодека : 1
Продолжительность : 36 м.
Вид битрейта : Постоянный
Битрейт : 1536 Кбит/сек
Каналы : 2 канала
Частота : 48,0 КГц
Битовая глубина : 16 бит
Размер потока : 400 Мбайт (39%)
Продолжительность промежутка : 40 мс. (1,00 видеокадр)
Время предзагрузки промежутка : 500 мс.

Скриншоты

- - - - -

Ария

Сет-лист:

01. Колизей
02. Раскачаем этот мир
03. Крещение огнём
04. Небо тебя найдёт
05. Последний закат
06. Там высоко (+ Хелависа)
07. Герой асфальта (+ Валерий Кипелов)
08. Осколок льда (+ Валерий Кипелов)
09. Баллада о древнерусском воине (+ Валерий Кипелов)
10. Штиль (+ Валерий Кипелов)
11. Бой продолжается (+ Валерий Кипелов, дуэт)
12. Замкнутый круг (+ Валерий Кипелов, дуэт)
13. Максим Удалов - барабанное соло
14. Улица роз (+ Валерий Кипелов)
15. Дай жару (+ Валерий Кипелов, дуэт) *
16. День рождения*
* Исполняет - группа Ария, на сцене присутствуют и частично подпевают - все участники концерта.
Продолжительность: 01:39:22
Качество: CAMRip
Контейнер: AVI
Видео кодек: H.264
Аудио кодек: MP3
Видео: MPEG4 Video (H264) 768x432 (16:9) 25.00fps, 2400 Kbps
Аудио: MPEG Audio Layer 3 48000Hz stereo 320Kbps

MediaInfo

Общее
Полное имя : D:\Видео - концерты\Ария XXV лет - Народный DVD (DVDRip) 2010-11-27 Олимпийский\Aria_-_Live_2010-11-27_Aria-fest_Olimpiyskiy.avi
Формат : AVI
Формат/Информация : Audio Video Interleave
Размер файла : 1,90 Гбайт
Продолжительность : 1 ч. 39 м.
Общий поток : 2732 Кбит/сек
Библиотека кодирования : VirtualDub-MPEG2 build 24600/release
Видео
Идентификатор : 0
Формат : AVC
Формат/Информация : Advanced Video Codec
Профиль формата : High@L3.0
Параметр CABAC формата : Да
Параметр ReFrames формата : 1 кадр
Идентификатор кодека : H264
Продолжительность : 1 ч. 39 м.
Битрейт : 2400 Кбит/сек
Ширина : 768 пикселей
Высота : 432 пикселя
Соотношение сторон : 16:9
Частота кадров : 25,000 кадров/сек
Цветовое пространство : YUV
Субдискретизация насыщенности : 4:2:0
Битовая глубина : 8 бит
Тип развёртки : Прогрессивная
Бит/(Пиксели*Кадры) : 0.289
Размер потока : 1,67 Гбайт (88%)
Библиотека кодирования : x264 core 65 r1063bm 84a1ca6
Настройки программы : cabac=1 / ref=1 / deblock=1:0:0 / analyse=0x3:0x13 / me=umh / subme=7 / psy_rd=0.0:0.0 / mixed_ref=0 / me_range=16 / chroma_me=1 / trellis=1 / 8x8dct=1 / cqm=0 / deadzone=21,11 / chroma_qp_offset=0 / threads=2 / thread_queue=2 / nr=0 / decimate=1 / mbaff=0 / bframes=0 / keyint=250 / keyint_min=25 / scenecut=40(pre) / rc=abr / bitrate=2400 / ratetol=1.0 / qcomp=0.60 / qpmin=10 / qpmax=51 / qpstep=4 / ip_ratio=1.40 / aq=1:1.00:0:10.00
Аудио
Идентификатор : 1
Формат : MPEG Audio
Версия формата : Version 1
Профиль формата : Layer 3
Режим : Joint stereo
Идентификатор кодека : 55
Идентификатор кодека/Подсказка : MP3
Продолжительность : 1 ч. 39 м.
Вид битрейта : Постоянный
Битрейт : 320 Кбит/сек
Каналы : 2 канала
Частота : 48,0 КГц
Метод сжатия : С потерями
Размер потока : 227 Мбайт (12%)
Выравнивание : Разделение по промежуткам
Продолжительность промежутка : 40 мс. (1,00 видеокадр)
Время предзагрузки промежутка : 500 мс.
Библиотека кодирования : LAMEЄЄ

Скриншоты

- - - - - - -
[filmgrad.ru].t4315.torrent 
Torrent: Registered [ 2012-01-15 23:28 ] · E6A9BEC8F1539AA41150940D086968A772A93C09

Download .torrent

Download

22 KB

Status: checked
Completed: 1 times
Size: 4.18 GB
Оценка:  5 (Голосов: 2)
Поблагодарили: 4   (список)
terms.php
 
Display posts:    
Reply to topic

Current time is: 01-Jun 05:54

All times are UTC + 3



You cannot post new topics in this forum
You cannot reply to topics in this forum
You cannot edit your posts in this forum
You cannot delete your posts in this forum
You cannot vote in polls in this forum
You cannot attach files in this forum
You can download files in this forum