Старые кадры [01-20 из 20] (2020) WEBRip-AVC от GeneralFilm

Reply to topic
DL-List and Torrent activity
Size:  11.72 GB   |    Registered:  8 days   |    Completed:  0 times
Seeders:  46  [  0 KB/s  ]   Leechers:  30  [  0 KB/s  ]   Show peers in full details
 
     
 
 
Author Message

Grant_75 ®

Gender: Male

Longevity: 1 year 6 months

Posts: 614

Post 17-Oct-2020 22:38

[Quote]

Год выпуска: 2020
Жанр: Детектив
Выпущено: Россия, ООО «Алекс Медиа»
Режиссер: Евгений Звездаков, Алексей Луканев
В ролях: Мария Шукшина, Борис Щербаков, Дмитрий Астрахан, Борис Галкин, Елена Коренева, Артур Ваха, Иван Агапов, Алексей Фатеев, Анна Алексахина, Юлия Яблонская, Александр Никольский, Франя Файзиева, Самвел Мужикян, Заза Чантурия, Алексей Кирилин, Маргарита Шилова, Мария Романова, Олеся Астапова, Наталия Колоскова
О фильме: Александра Токарева, опытный сотрудник Следственного комитета, из-за дурацкой случайности сорвала важную операцию. Начальство вынуждено ее перевести, и Токареву отправляют руководить только что созданным отделом по расследованию нераскрытых преступлений – ОРНП. Отдел задуман больше ради имиджа, для улучшения которого к работе хотят привлечь отставных полицейских и поручить им заново расследовать преступления, которые не были раскрыты 20-30 лет назад. Александра набирает команду. Бравые пенсионеры не отличаются ни покладистым характером, ни почтением к начальству. Но оказывается, их зря списали – первое же дело заканчивается успехом.
l]
Кодек: h.264
Качество: WEBRip-AVC
Видео: MPEG-4 AVC, ~ 1500 Кбит/с, 720х400, 25 кадр/с
Аудио: Русский (AC3, 2 ch, 192 Кбит/с)
Продолжительность: 20 х ~ 00:50:00
Перевод: Не требуется
Субтитры: нет

Скриншоты


MediaInfo

Общее
Уникальный идентификатор : 225324243171848870548348316749685620504 (0xA983DEE6FD114FECADB97628F4247F18)
Полное имя : D:Starye kadry.WEBRip.(AVC).GeneralFilm1.Starye kadry.WEBRip.(AVC).GeneralFilm.mkv
Формат : Matroska
Версия формата : Version 2
Размер файла : 600 Мбайт
Продолжительность : 51 м.
Общий поток : 1628 Кбит/сек
Дата кодирования : UTC 2020-10-05 20:25:42
Программа кодирования : mkvmerge v7.8.0 ('River Man') 32bit built on Apr 3 2015 12:11:22
Библиотека кодирования : libebml v1.3.1 + libmatroska v1.4.2
Видео
Идентификатор : 1
Формат : AVC
Формат/Информация : Advanced Video Codec
Профиль формата : High@L4.1
Параметр CABAC формата : Да
Параметр ReFrames формата : 9 кадров
Идентификатор кодека : V_MPEG4/ISO/AVC
Продолжительность : 51 м.
Битрейт : 1435 Кбит/сек
Ширина : 720 пикселей
Высота : 400 пикселей
Соотношение сторон : 16:9
Режим частоты кадров : Постоянный
Частота кадров : 25,000 кадров/сек
Цветовое пространство : YUV
Субдискретизация насыщенности : 4:2:0
Битовая глубина : 8 бит
Тип развёртки : Прогрессивная
Бит/(Пиксели*Кадры) : 0.199
Размер потока : 518 Мбайт (86%)
Библиотека кодирования : x264 core 146 r2538 121396c
Настройки программы : cabac=1 / ref=9 / deblock=1:-2:-1 / analyse=0x3:0x133 / me=umh / subme=9 / psy=1 / psy_rd=1.00:0.15 / mixed_ref=1 / me_range=32 / chroma_me=1 / trellis=2 / 8x8dct=1 / cqm=0 / deadzone=21,11 / fast_pskip=0 / chroma_qp_offset=-3 / threads=18 / lookahead_threads=3 / sliced_threads=0 / nr=0 / decimate=1 / interlaced=0 / bluray_compat=0 / constrained_intra=0 / bframes=9 / b_pyramid=2 / b_adapt=2 / b_bias=0 / direct=3 / weightb=1 / open_gop=0 / weightp=2 / keyint=250 / keyint_min=25 / scenecut=40 / intra_refresh=0 / rc=2pass / mbtree=0 / bitrate=1435 / ratetol=1.0 / qcomp=0.60 / qpmin=0 / qpmax=69 / qpstep=4 / cplxblur=20.0 / qblur=0.5 / ip_ratio=1.40 / pb_ratio=1.30 / aq=2:1.00
Default : Да
Forced : Нет
Основные цвета : BT.709
Характеристики трансфера : BT.709
Коэффициенты матрицы : BT.709
Аудио
Идентификатор : 2
Формат : AC-3
Формат/Информация : Audio Coding 3
Расширение режима : CM (complete main)
Параметр Endianness формата : Big
Идентификатор кодека : A_AC3
Продолжительность : 51 м.
Вид битрейта : Постоянный
Битрейт : 192 Кбит/сек
Каналы : 2 канала
Расположение каналов : Front: L R
Частота : 48,0 КГц
Битовая глубина : 16 бит
Метод сжатия : С потерями
Размер потока : 70,8 Мбайт (12%)
Default : Да
Forced : Нет

Внимание! Раздача ведётся путём добавления новых серий

Раздача ведётся путём добавления новых серий, при каждом добавлении создаётся новый торрент. Чтобы начать докачку новой серии, пользователям необходимо сделать следующее:
- Остановить скачивание.
- Удалить старый торрент у себя из клиента (старые серии удалять не надо).
- Скачать новый торрент и запустить его у себя в клиенте вместо старого, при этом указать клиенту путь в старую папку куда и должно происходить скачивание новых серий.
Ваш клиент при этом должен произвести хеширование (проверку) старой папки (если не производит сам - помогите ему сделать это), и будет докачивать только те серии которых у вас ещё нет. Старые серии при этом не удаляются, а продолжают раздаваться!
Если вы уже удалили старые серии, то предотвратить повторную закачку старых серий можно, отжав галочку в соответствующих местах при запуске нового торрента. По возможности, желательно не удалять старые серии как можно дольше, чтобы релизер не столько продолжал раздавать старые серии, а смог сконцентрироваться на новых.
--Релиз группа: Filmgrad.Ru ->
[filmgrad.ru].t152280.torrent 
Torrent: Registered [ 2020-10-17 22:38 ] · 45CBC9F9A68077D974246774492019A55EE74EE0

Download .torrent

Download

61 KB

Status: checked
Completed: 0 times
Size: 11.72 GB
Оценка:  - (Голосов: 0)
Поблагодарили: 0  Спасибо
terms.php
[Profile] [PM]
Display posts:    
Reply to topic

Current time is: 26-Oct 04:32

All times are UTC + 3



You cannot post new topics in this forum
You cannot reply to topics in this forum
You cannot edit your posts in this forum
You cannot delete your posts in this forum
You cannot vote in polls in this forum
You cannot attach files in this forum
You can download files in this forum