(Euro-Disco) [CD] VA - Euro Disco - The Lost Legends Vol. 29 - 2019, FLAC (tracks+.cue), lossless

Reply to topic
DL-List and Torrent activity
Size:  691 MB   |    Registered:  9 days   |    Completed:  0 times

Seeder not seen: Never

Leechers:  2  [  0 KB/s  ]   Show peers in full details
 
     
 
 
Author Message

Grant_75 ®

Gender: Male

Longevity: 1 year 6 months

Posts: 614

Post 16-Oct-2020 18:42

[Quote]

Euro Disco - The Lost Legends Vol. 29
Жанр: Euro-Disco
Носитель: CD
Страна-производитель диска (релиза): Netherlands
Год издания: 2019
Издатель (лейбл): Disco Magic Melody
Номер по каталогу: DMM CD 29 E
Аудиокодек: FLAC (*.flac)
Тип рипа: tracks+.cue
Продолжительность: 01:19:15
Источник: israbox
Наличие сканов в содержимом раздачи: да
Треклист:
01. Digitalia - Gente Di Roma [00:05:35]
02. Tutti Quanti - Tous En Kimono [00:05:11]
03. Fair Fax - Satellite Dream [00:07:52]
04. LG-Gang - Forever [00:03:12]
05. Alita Heart - Love Me Tonight [00:05:43]
06. Boo Who - Angie Cries [00:06:10]
07. Celestium - Sanctuary [00:03:33]
08. Kim Lamour - Love Maker [00:07:29]
09. Robert Linn - Let's Do Holidays [00:06:35]
10. Keith Ellis - Starship Of Seven Tears [00:07:13]
11. The Unknown Art - Blackmail You [00:05:45]
12. Famous Fairbanks - Spacepatrol [00:05:30]
13. Nathalie - Don't Look [00:05:30]
14. Innocent Cry - Tune In Tokyo [00:03:57]

Лог создания рипа

Exact Audio Copy V1.3 from 2. September 2016
EAC extraction logfile from 4. January 2020, 17:27
Various / Euro Disco - The Lost Legends Vol. 29
Used drive : PLEXTOR CD-ROM PX-54TA Adapter: 1 ID: 0
Read mode : Secure
Utilize accurate stream : Yes
Defeat audio cache : Yes
Make use of C2 pointers : No
Read offset correction : 12
Overread into Lead-In and Lead-Out : No
Fill up missing offset samples with silence : Yes
Delete leading and trailing silent blocks : No
Null samples used in CRC calculations : Yes
Used interface : Native Win32 interface for Win NT & 2000
Gap handling : Appended to previous track
Used output format : User Defined Encoder
Selected bitrate : 1024 kBit/s
Quality : High
Add ID3 tag : No
Command line compressor : C:\Program Files (x86)\Exact Audio Copy\Flac\flac-1.3.2-win\flac-1.3.2-win\win64\flac.exe
Additional command line options : -V -6 -T "COMMENT=ripped by Krevetka1972 special for new-team org" -T "ARTIST=%artist%" -T "TITLE=%title%" -T "ALBUM=%albumtitle%" -T "DATE=%year%" -T "TRACKNUMBER=%tracknr%" -T "GENRE=%genre%" -T "ALBUMARTIST=%albuminterpret%" %source% -o %dest%
TOC of the extracted CD
Track | Start | Length | Start sector | End sector
---------------------------------------------------------
1 | 0:00.00 | 5:35.55 | 0 | 25179
2 | 5:35.55 | 5:11.25 | 25180 | 48529
3 | 10:47.05 | 7:52.00 | 48530 | 83929
4 | 18:39.05 | 3:12.66 | 83930 | 98395
5 | 21:51.71 | 5:43.67 | 98396 | 124187
6 | 27:35.63 | 6:10.06 | 124188 | 151943
7 | 33:45.69 | 3:33.27 | 151944 | 167945
8 | 37:19.21 | 7:29.74 | 167946 | 201694
9 | 44:49.20 | 6:35.67 | 201695 | 231386
10 | 51:25.12 | 7:13.20 | 231387 | 263881
11 | 58:38.32 | 5:45.42 | 263882 | 289798
12 | 64:23.74 | 5:30.49 | 289799 | 314597
13 | 69:54.48 | 5:30.40 | 314598 | 339387
14 | 75:25.13 | 3:57.40 | 339388 | 357202
Track 1
Filename E:\Euro Disco - The Lost Legends\Various - 2018 - Euro Disco - The Lost Legends Vol. 29 (Disco Magic Melody # DMM CD 29 E)\01. Digitalia - Gente Di Roma.wav
Pre-gap length 0:00:02.00
Peak level 92.0 %
Extraction speed 2.8 X
Track quality 100.0 %
Test CRC F363521D
Copy CRC F363521D
Track not present in AccurateRip database
Copy OK
Track 2
Filename E:\Euro Disco - The Lost Legends\Various - 2018 - Euro Disco - The Lost Legends Vol. 29 (Disco Magic Melody # DMM CD 29 E)\02. Tutti Quanti - Tous En Kimono.wav
Pre-gap length 0:00:02.00
Peak level 73.4 %
Extraction speed 3.6 X
Track quality 100.0 %
Test CRC CF938B21
Copy CRC CF938B21
Track not present in AccurateRip database
Copy OK
Track 3
Filename E:\Euro Disco - The Lost Legends\Various - 2018 - Euro Disco - The Lost Legends Vol. 29 (Disco Magic Melody # DMM CD 29 E)\03. Fair Fax - Satellite Dream.wav
Pre-gap length 0:00:02.00
Peak level 72.9 %
Extraction speed 4.1 X
Track quality 100.0 %
Test CRC E891E156
Copy CRC E891E156
Track not present in AccurateRip database
Copy OK
Track 4
Filename E:\Euro Disco - The Lost Legends\Various - 2018 - Euro Disco - The Lost Legends Vol. 29 (Disco Magic Melody # DMM CD 29 E)\04. LG-Gang - Forever.wav
Pre-gap length 0:00:02.00
Peak level 84.6 %
Extraction speed 3.5 X
Track quality 99.9 %
Test CRC C213232E
Copy CRC C213232E
Track not present in AccurateRip database
Copy OK
Track 5
Filename E:\Euro Disco - The Lost Legends\Various - 2018 - Euro Disco - The Lost Legends Vol. 29 (Disco Magic Melody # DMM CD 29 E)\05. Alita Heart - Love Me Tonight.wav
Pre-gap length 0:00:02.00
Peak level 84.2 %
Extraction speed 4.5 X
Track quality 100.0 %
Test CRC F6828BC1
Copy CRC F6828BC1
Track not present in AccurateRip database
Copy OK
Track 6
Filename E:\Euro Disco - The Lost Legends\Various - 2018 - Euro Disco - The Lost Legends Vol. 29 (Disco Magic Melody # DMM CD 29 E)\06. Boo Who - Angie Cries.wav
Pre-gap length 0:00:02.00
Peak level 64.9 %
Extraction speed 4.9 X
Track quality 100.0 %
Test CRC 445BF4F9
Copy CRC 445BF4F9
Track not present in AccurateRip database
Copy OK
Track 7
Filename E:\Euro Disco - The Lost Legends\Various - 2018 - Euro Disco - The Lost Legends Vol. 29 (Disco Magic Melody # DMM CD 29 E)\07. Celestium - Sanctuary.wav
Pre-gap length 0:00:02.00
Peak level 92.5 %
Extraction speed 4.7 X
Track quality 100.0 %
Test CRC 1B4890C5
Copy CRC 1B4890C5
Track not present in AccurateRip database
Copy OK
Track 8
Filename E:\Euro Disco - The Lost Legends\Various - 2018 - Euro Disco - The Lost Legends Vol. 29 (Disco Magic Melody # DMM CD 29 E)\08. Kim Lamour - Love Maker.wav
Pre-gap length 0:00:02.00
Peak level 93.1 %
Extraction speed 5.4 X
Track quality 100.0 %
Test CRC 8C0CD5C1
Copy CRC 8C0CD5C1
Track not present in AccurateRip database
Copy OK
Track 9
Filename E:\Euro Disco - The Lost Legends\Various - 2018 - Euro Disco - The Lost Legends Vol. 29 (Disco Magic Melody # DMM CD 29 E)\09. Robert Linn - Let's Do Holidays.wav
Pre-gap length 0:00:02.00
Peak level 68.4 %
Extraction speed 5.6 X
Track quality 100.0 %
Test CRC AB536075
Copy CRC AB536075
Track not present in AccurateRip database
Copy OK
Track 10
Filename E:\Euro Disco - The Lost Legends\Various - 2018 - Euro Disco - The Lost Legends Vol. 29 (Disco Magic Melody # DMM CD 29 E)\10. Keith Ellis - Starship Of Seven Tears.wav
Pre-gap length 0:00:02.00
Peak level 76.0 %
Extraction speed 5.5 X
Track quality 99.9 %
Test CRC AF62853C
Copy CRC AF62853C
Track not present in AccurateRip database
Copy OK
Track 11
Filename E:\Euro Disco - The Lost Legends\Various - 2018 - Euro Disco - The Lost Legends Vol. 29 (Disco Magic Melody # DMM CD 29 E)\11. The Unknown Art - Blackmail You.wav
Pre-gap length 0:00:02.00
Peak level 97.9 %
Extraction speed 6.1 X
Track quality 100.0 %
Test CRC 8DD4C0FE
Copy CRC 8DD4C0FE
Track not present in AccurateRip database
Copy OK
Track 12
Filename E:\Euro Disco - The Lost Legends\Various - 2018 - Euro Disco - The Lost Legends Vol. 29 (Disco Magic Melody # DMM CD 29 E)\12. Famous Fairbanks - Spacepatrol.wav
Pre-gap length 0:00:02.00
Peak level 90.0 %
Extraction speed 5.7 X
Track quality 99.9 %
Test CRC AEE8AE53
Copy CRC AEE8AE53
Track not present in AccurateRip database
Copy OK
Track 13
Filename E:\Euro Disco - The Lost Legends\Various - 2018 - Euro Disco - The Lost Legends Vol. 29 (Disco Magic Melody # DMM CD 29 E)\13. Nathalie - Don't Look.wav
Pre-gap length 0:00:02.00
Peak level 72.4 %
Extraction speed 6.5 X
Track quality 100.0 %
Test CRC 1359F6A0
Copy CRC 1359F6A0
Track not present in AccurateRip database
Copy OK
Track 14
Filename E:\Euro Disco - The Lost Legends\Various - 2018 - Euro Disco - The Lost Legends Vol. 29 (Disco Magic Melody # DMM CD 29 E)\14. Innocent Cry - Tune In Tokyo.wav
Pre-gap length 0:00:02.00
Peak level 61.3 %
Extraction speed 6.3 X
Track quality 100.0 %
Test CRC F7A56C61
Copy CRC F7A56C61
Track not present in AccurateRip database
Copy OK
None of the tracks are present in the AccurateRip database
No errors occurred
End of status report
---- AcoustID Plugin V1.2.0
Total fingerprints: 14
---- CUETools DB Plugin V2.1.6
[CTDB TOCID: l7e3aeqlEj_wKa9y2V08XTmI7Ug-] disk not present in database
Submit result: l7e3aeqlEj_wKa9y2V08XTmI7Ug- has been uploaded
==== Log checksum 7636DBDB7A3513BF58329209C8332B18390A7B3F7DAD20727A17D0A315E03A2F ====

Содержание индексной карты (.CUE)

REM GENRE Euro-Disco
REM DATE 2019
REM DISCID C0129A0E
REM COMMENT "ExactAudioCopy v1.3"
PERFORMER "Various"
TITLE "Euro Disco - The Lost Legends Vol. 29"
REM COMPOSER ""
FILE "01. Digitalia - Gente Di Roma.wav" WAVE
TRACK 01 AUDIO
TITLE "Gente Di Roma"
PERFORMER "Digitalia"
REM COMPOSER ""
INDEX 01 00:00:00
TRACK 02 AUDIO
TITLE "Tous En Kimono"
PERFORMER "Tutti Quanti"
REM COMPOSER ""
INDEX 00 05:33:55
FILE "02. Tutti Quanti - Tous En Kimono.wav" WAVE
INDEX 01 00:00:00
TRACK 03 AUDIO
TITLE "Satellite Dream"
PERFORMER "Fair Fax"
REM COMPOSER ""
INDEX 00 05:09:25
FILE "03. Fair Fax - Satellite Dream.wav" WAVE
INDEX 01 00:00:00
TRACK 04 AUDIO
TITLE "Forever"
PERFORMER "LG-Gang"
REM COMPOSER ""
INDEX 00 07:50:00
FILE "04. LG-Gang - Forever.wav" WAVE
INDEX 01 00:00:00
TRACK 05 AUDIO
TITLE "Love Me Tonight"
PERFORMER "Alita Heart"
REM COMPOSER ""
INDEX 00 03:10:66
FILE "05. Alita Heart - Love Me Tonight.wav" WAVE
INDEX 01 00:00:00
TRACK 06 AUDIO
TITLE "Angie Cries"
PERFORMER "Boo Who"
REM COMPOSER ""
INDEX 00 05:41:67
FILE "06. Boo Who - Angie Cries.wav" WAVE
INDEX 01 00:00:00
TRACK 07 AUDIO
TITLE "Sanctuary"
PERFORMER "Celestium"
REM COMPOSER ""
INDEX 00 06:08:06
FILE "07. Celestium - Sanctuary.wav" WAVE
INDEX 01 00:00:00
TRACK 08 AUDIO
TITLE "Love Maker"
PERFORMER "Kim Lamour"
REM COMPOSER ""
INDEX 00 03:31:27
FILE "08. Kim Lamour - Love Maker.wav" WAVE
INDEX 01 00:00:00
TRACK 09 AUDIO
TITLE "Let's Do Holidays"
PERFORMER "Robert Linn"
REM COMPOSER ""
INDEX 00 07:27:74
FILE "09. Robert Linn - Let's Do Holidays.wav" WAVE
INDEX 01 00:00:00
TRACK 10 AUDIO
TITLE "Starship Of Seven Tears"
PERFORMER "Keith Ellis"
REM COMPOSER ""
INDEX 00 06:33:67
FILE "10. Keith Ellis - Starship Of Seven Tears.wav" WAVE
INDEX 01 00:00:00
TRACK 11 AUDIO
TITLE "Blackmail You"
PERFORMER "The Unknown Art"
REM COMPOSER ""
INDEX 00 07:11:20
FILE "11. The Unknown Art - Blackmail You.wav" WAVE
INDEX 01 00:00:00
TRACK 12 AUDIO
TITLE "Spacepatrol"
PERFORMER "Famous Fairbanks"
REM COMPOSER ""
INDEX 00 05:43:42
FILE "12. Famous Fairbanks - Spacepatrol.wav" WAVE
INDEX 01 00:00:00
TRACK 13 AUDIO
TITLE "Don't Look"
PERFORMER "Nathalie"
REM COMPOSER ""
INDEX 00 05:28:49
FILE "13. Nathalie - Don't Look.wav" WAVE
INDEX 01 00:00:00
TRACK 14 AUDIO
TITLE "Tune In Tokyo"
PERFORMER "Innocent Cry"
REM COMPOSER ""
INDEX 00 05:28:40
FILE "14. Innocent Cry - Tune In Tokyo.wav" WAVE
INDEX 01 00:00:00
--Релиз группа: Filmgrad.Ru ->
[filmgrad.ru].t152236.torrent 
Torrent: Registered [ 2020-10-16 18:42 ] · 6190A98797D014A4F8181E8BEDBCD4D753AA1B1C

Download .torrent

Download

16 KB

Status: checked
Completed: 0 times
Size: 691 MB
Оценка:  5 (Голосов: 1)
Поблагодарили: 1  Спасибо   (список)
terms.php
[Profile] [PM]
Display posts:    
Reply to topic

Current time is: 26-Oct 03:46

All times are UTC + 3



You cannot post new topics in this forum
You cannot reply to topics in this forum
You cannot edit your posts in this forum
You cannot delete your posts in this forum
You cannot vote in polls in this forum
You cannot attach files in this forum
You can download files in this forum