Думай как собака / Think Like a Dog (2020) BDRip 1080p | iTunes

Reply to topic
DL-List and Torrent activity
Size:  9.78 GB   |    Registered:  10 days   |    Completed:  0 times
Seeders:  245  [  0 KB/s  ]   Leechers:  52  [  0 KB/s  ]   Show peers in full details
 
     
 
 
Author Message

dybrik13 ®

Gender: Male

Longevity: 1 year 8 months

Posts: 8571

Location: Киев

Post 15-Oct-2020 18:22

[Quote]

Думай как собака / Think Like a Dog- Оригинальное название: Think Like a Dog
Год выхода: 2020
Жанр: Фантастика, драма, комедия, семейный
Режиссер: Джил Джангер
В ролях: Гэбриел Бейтман, Джош Дюамель, Меган Фокс, Мэдисон Хорчер, Минхао Хоу, Исаак Ванг, Диллон Альф, Билли Джонстон, Кунал Найяр, Джанет Монтгомери-В ходе научного эксперимента 12-летний вундеркинд Оливер устанавливает телепатическую связь с любимым и, как оказалось, очень умным псом Генри. Благодаря подсказкам собаки парню удается решать проблемы в школе, дома и даже с девочками...
Страна: Китай, США, Великобритания
Студия: Arboretum Productions, M Star International, Mad Chance
Продолжительность: 01:30:54
Перевод: Дублированный | iTunes
Качество: BDRip 1080p
Видео: MPEG-4 AVC, 1920x1038, 13.5 Mbit/s, 23.976 fps
Аудио #01: 48 kHz, AC3, 5.1, 384 Kbps | iTunes | RUS |
Аудио #02: 48 kHz, DTS, 5.1, 1510 Kbps | Оригинал | ENG |
Субтитры: Английские

Скриншоты

MI

General
Unique ID : 12609526936424721503806745515812719567 (0x97C81AD55EBB41E5D59AF2804440BCF)
Complete name : D:Video111Think.Like.a.Dog.2020.BDRip.1080p.seleZen.mkv
Format : Matroska
Format version : Version 4
File size : 9.78 GiB
Duration : 1 h 30 min
Overall bit rate : 15.4 Mb/s
Movie name : Think Like a.Dog 2020 from селезень
Encoded date : UTC 2020-10-15 14:30:55
Writing application : mkvmerge v40.0.0 ('Old Town Road + Pony') 64-bit
Writing library : libebml v1.3.9 + libmatroska v1.5.2
Video
ID : 1
Format : AVC
Format/Info : Advanced Video Codec
Format profile : High@L4.1
Format settings : CABAC / 4 Ref Frames
Format settings, CABAC : Yes
Format settings, Reference : 4 frames
Codec ID : V_MPEG4/ISO/AVC
Duration : 1 h 30 min
Bit rate : 13.5 Mb/s
Width : 1 920 pixels
Height : 1 038 pixels
Display aspect ratio : 1.85:1
Frame rate mode : Constant
Frame rate : 23.976 (24000/1001) FPS
Color space : YUV
Chroma subsampling : 4:2:0
Bit depth : 8 bits
Scan type : Progressive
Bits/(Pixel*Frame) : 0.282
Stream size : 8.57 GiB (88%)
Writing library : x264 core 161 r3007+56M ~ Encoded by Mocunaman in Portugal
Encoding settings : cabac=1 / ref=4 / deblock=1:-3:-3 / analyse=0x3:0x133 / me=umh / subme=11 / psy=1 / fade_compensate=0.00 / psy_rd=1.00:0.00 / mixed_ref=1 / me_range=48 / chroma_me=1 / trellis=2 / 8x8dct=1 / cqm=0 / deadzone=21,11 / fast_pskip=0 / chroma_qp_offset=-2 / threads=32 / lookahead_threads=5 / sliced_threads=0 / nr=0 / decimate=0 / interlaced=0 / bluray_compat=0 / constrained_intra=0 / fgo=0 / bframes=8 / b_pyramid=2 / b_adapt=2 / b_bias=0 / direct=3 / weightb=1 / open_gop=0 / weightp=2 / keyint=250 / keyint_min=23 / scenecut=40 / intra_refresh=0 / rc_lookahead=60 / rc=crf / mbtree=0 / crf=18.2000 / qcomp=0.60 / qpmin=0:0:0 / qpmax=69:69:69 / qpstep=4 / vbv_maxrate=62500 / vbv_bufsize=78125 / crf_max=0.0 / nal_hrd=none / filler=0 / ip_ratio=1.30 / pb_ratio=1.20 / aq=3:0.80 / aq-sensitivity=10.00 / aq-factor=1.00:1.00:1.00 / aq2=0 / aq3=0 / zones=106331,117788,crf=17.5
Language : English
Default : Yes
Forced : No
Color range : Limited
Matrix coefficients : BT.709
Audio #1
ID : 2
Format : AC-3
Format/Info : Audio Coding 3
Commercial name : Dolby Digital
Codec ID : A_AC3
Duration : 1 h 30 min
Bit rate mode : Constant
Bit rate : 384 kb/s
Channel(s) : 6 channels
Channel layout : L R C LFE Ls Rs
Sampling rate : 48.0 kHz
Frame rate : 31.250 FPS (1536 SPF)
Compression mode : Lossy
Stream size : 250 MiB (2%)
Title : iTunes
Language : Russian
Service kind : Complete Main
Default : Yes
Forced : Yes
Audio #2
ID : 3
Format : DTS
Format/Info : Digital Theater Systems
Codec ID : A_DTS
Duration : 1 h 30 min
Bit rate mode : Constant
Bit rate : 1 509 kb/s
Channel(s) : 6 channels
Channel layout : C L R Ls Rs LFE
Sampling rate : 48.0 kHz
Frame rate : 93.750 FPS (512 SPF)
Bit depth : 24 bits
Compression mode : Lossy
Stream size : 981 MiB (10%)
Title : Original
Language : English
Default : No
Forced : No
Text #1
ID : 4
Format : UTF-8
Codec ID : S_TEXT/UTF8
Codec ID/Info : UTF-8 Plain Text
Duration : 1 h 24 min
Bit rate : 86 b/s
Count of elements : 1416
Stream size : 53.0 KiB (0%)
Title : Full
Language : English
Default : No
Forced : No
Text #2
ID : 5
Format : UTF-8
Codec ID : S_TEXT/UTF8
Codec ID/Info : UTF-8 Plain Text
Duration : 1 h 25 min
Bit rate : 93 b/s
Count of elements : 1597
Stream size : 59.1 KiB (0%)
Title : SDH
Language : English
Default : No
Forced : No
Menu
00:00:00.000 : en:Chapter 01
00:06:29.222 : en:Chapter 02
00:11:26.102 : en:Chapter 03
00:15:10.493 : en:Chapter 04
00:20:36.277 : en:Chapter 05
00:24:44.942 : en:Chapter 06
00:30:44.259 : en:Chapter 07
00:39:13.560 : en:Chapter 08
00:45:20.718 : en:Chapter 09
00:51:45.602 : en:Chapter 10
00:57:39.581 : en:Chapter 11
00:59:33.779 : en:Chapter 12
01:06:02.458 : en:Chapter 13
01:10:47.410 : en:Chapter 14
01:13:45.630 : en:Chapter 15
01:21:52.741 : en:Chapter 16
--Релиз группа: Filmgrad.Ru ->
[filmgrad.ru].t152197.torrent 
Torrent: Registered [ 2020-10-15 18:22 ] · 398122171C0A181A330B98EABF2A47E663A46EE2

Download .torrent

Download

197 KB

Status: checked
Completed: 0 times
Size: 9.78 GB
Оценка:  5 (Голосов: 1)
Поблагодарили: 0  Спасибо
terms.php
[Profile] [PM]
Display posts:    
Reply to topic

Current time is: 26-Oct 03:29

All times are UTC + 3



You cannot post new topics in this forum
You cannot reply to topics in this forum
You cannot edit your posts in this forum
You cannot delete your posts in this forum
You cannot vote in polls in this forum
You cannot attach files in this forum
You can download files in this forum