Хороший человек / Сезон: 1 / Серии: 1-9 из 9 (Константин Богомолов) [2020, Драма, триллер, WEBRip 1080p]

Reply to topic
DL-List and Torrent activity
Size:  19.17 GB   |    Registered:  11 days   |    Completed:  0 times
Seeders:  210  [  0 KB/s  ]   Leechers:  116  [  0 KB/s  ]   Show peers in full details
 
     
 
 
Author Message

Grant_75 ®

Gender: Male

Longevity: 1 year 6 months

Posts: 614

Post 15-Oct-2020 01:56

[Quote]

Хороший человек- Год выпуска: 2020
Производство: START Studio
Жанр: Драма, триллер
Продолжительность: ~ 00:55:00
Субтитры: Отсутствуют-Режиссёр: Константин Богомолов-В ролях: Никита Ефремов, Юлия Снигирь, Андрей Бурковский, Александра Ребенок, Ксения Собчак, Игорь Гордин, Игорь Черневич, Алексей Вертков, Дмитрий Куличков, Константин Мурзенко, Александр Семчев, Александр Марин, Дарья Жовнер, Владимир Храбров, Валерий Дегтярь, Василий Реутов, Артём Михалков, Геннадий Вырыпаев, Екатерина Дурова, Ольга Лапшина, Игорь Грабузов, Илья Дель, Кирилл Власов, Павел Ворожцов, Игорь Хрипунов, Дмитрий Лысенков, Ольга Бешуля, Ванда Конисевич-Описание: В тихий городок Вознесенск приезжает молодой столичный следователь Евгения Ключевская. Начальство командировало её сюда с сухой официальной формулировкой «проверить информацию СМИ о существовании серийного убийцы». В Вознесенске москвичку встретят прохладно: как и в любом провинциальном городке, здесь еще с 90-х сложилась своя экосистема, где все друг с другом в чем-то повязаны, и в шкафу каждого припрятано по скелету.
В основу сценария легла реальная история Михаила Попкова, «ангарского маньяка», шокировавшая всю страну. Его кровавый след уходит в 90-е.--Присутствует ненормативная лексика 18+-Качество: WEBRip 1080p
Формат: MKV
Видео кодек: H.264
Аудио кодек: AC3
Видео: H.264 / AVC, 1920x1080 (16:9), 25,000 кадров/сек, ~6400 Кбит/сек, 0.123 bit/pixel
Аудио: AC3, 48,0 kHz, 2 ch, 192 Кбит/сек
Реклама: Нет-

MI

Общее
Уникальный идентификатор : 200867535614659165767870115461527342300 (0x971DAE1F9786DEFFB7098FE59AA58CDC)
Полное имя : D:\Horoshiy.chelovek.2020.WEB-DL.(1080p).Getty\Horoshiy.chelovek.e02.2020.WEB-DL.(1080p).Getty.mkv
Формат : Matroska
Версия формата : Version 4
Размер файла : 2,24 Гбайт
Продолжительность : 48 м. 40 с.
Общий поток : 6 583 Кбит/сек
Название фильма : Horoshiy.chelovek.e02.2020.WEB-DL.(1080p).Getty
Дата кодирования : UTC 2020-08-26 21:00:37
Программа кодирования : mkvmerge v7.8.0 ('River Man') 32bit built on Mar 27 2015 16:18:02
Библиотека кодирования : libebml v1.3.1 + libmatroska v1.4.2
Видео
Идентификатор : 1
Формат : AVC
Формат/Информация : Advanced Video Codec
Профиль формата : High@L4
Настройки формата : CABAC / 4 Ref Frames
Параметр CABAC формата : Да
Параметр RefFrames формата : 4 кадра
Идентификатор кодека : V_MPEG4/ISO/AVC
Продолжительность : 48 м. 40 с.
Битрейт : 6 389 Кбит/сек
Ширина : 1 920 пикселей
Высота : 1 080 пикселей
Соотношение сторон : 16:9
Режим частоты кадров : Постоянный
Частота кадров : 25,000 кадров/сек
Цветовое пространство : YUV
Субдискретизация насыщенности : 4:2:0
Битовая глубина : 8 бит
Тип развёртки : Прогрессивная
Бит/(Пиксели*Кадры) : 0.123
Размер потока : 2,17 Гбайт (97%)
Default : Да
Forced : Нет
Цветовой диапазон : Limited
Основные цвета : BT.709
Характеристики трансфера : BT.709
Коэффициенты матрицы : BT.709
Аудио
Идентификатор : 2
Формат : AC-3
Формат/Информация : Audio Coding 3
Коммерческое название : Dolby Digital
Идентификатор кодека : A_AC3
Продолжительность : 48 м. 40 с.
Вид битрейта : Постоянный
Битрейт : 192 Кбит/сек
Каналы : 2 канала
Channel layout : L R
Частота : 48,0 КГц
Частота кадров : 31,250 кадров/сек (1536 SPF)
Метод сжатия : С потерями
Размер потока : 66,8 Мбайт (3%)
Service kind : Complete Main
Default : Да
Forced : Нет
-

Скриншоты

-

Внимание! Раздача ведётся путём добавления новых серий

Внимание! Раздача ведётся путём добавления новых серий; при каждом добавлении создаётся новый торрент. Чтобы начать докачку новой серии, пользователям необходимо сделать следующее:
(1) остановить скачивание,
(2) удалить старый торрент у себя из клиента (старые серии удалять не надо),
(3) скачать новый торрент и запустить его у себя в клиенте вместо старого, при этом указать клиенту путь в старую папку куда и должно происходить скачивание новых серий.
Ваш клиент при этом должен произвести хеширование (проверку) старой папки (если не производит сам - помогите ему сделать это), и будет докачивать только те серии которых у вас ещё нет. Старые серии при этом не удаляются, а продолжают раздаваться!
Eсли вы уже удалили старые серии, то предотвратить повторную закачку старых серий можно, отжав галочку в соответствующих местах при запуске нового торрента. По возможности, желательно не удалять старые серии как можно дольше чтобы релизёр не столько продолжал раздавать старые серии, а смог сконцентрироваться на новых.
-Предыдущие и альтернативные раздачи--Релиз группа: Filmgrad.Ru ->
[filmgrad.ru].t152171.torrent 
 GOLD TORRENT! DOWNLOAD TRAFFIC DOES NOT CONSIDER! 
Torrent: Registered [ 2020-10-15 01:56 ] · B634F250CBDB17D7E4CE076FC8F8D129C1AC76CB

Download .torrent

Download

97 KB

Status: checked
Completed: 0 times
Size: 19.17 GB
Оценка:  - (Голосов: 0)
Поблагодарили: 0  Спасибо
terms.php
[Profile] [PM]
Display posts:    
Reply to topic

Current time is: 26-Oct 03:31

All times are UTC + 3



You cannot post new topics in this forum
You cannot reply to topics in this forum
You cannot edit your posts in this forum
You cannot delete your posts in this forum
You cannot vote in polls in this forum
You cannot attach files in this forum
You can download files in this forum