Пацаны / The Boys [S02] (2020) WEBRip 720p | AlexFilm, Jaskier, NewStudio, LostFilm, Кубик в Кубе

Reply to topic
DL-List and Torrent activity
Size:  21.9 GB   |    Registered:  11 days   |    Completed:  0 times
Seeders:  43  [  0 KB/s  ]   Leechers:  32  [  0 KB/s  ]   Show peers in full details
 
     
 
 
Author Message

Grant_75 ®

Gender: Male

Longevity: 1 year 6 months

Posts: 614

Post 14-Oct-2020 21:50

[Quote]

Информация о сериале
Название: Пацаны
Оригинальное название: The Boys
Год выхода: 2020
Жанр: Фантастика, боевик, комедия, криминал
Режиссёр: Филип Сгриккиа, Дэниэл Эттиэс, Эрик Крипке
В ролях: Карл Урбан, Джек Куэйд, Энтони Старр, Эрин Мориарти, Доминик МакЭллигот, Джесси Ашер, Лас Алонсо, Чейс Кроуфорд, Томер Капон, Карен Фукухар и др.
Описание:
Действие сериала разворачивается в мире, где существуют супергерои. Именно они являются настоящими звёздами. Их все знают и обожают. Но за идеальным фасадом скрывается гораздо более мрачный мир наркотиков и секса, а большинство героев — в жизни не самые приятные люди. Для контроля за супергероями ЦРУ создаёт специальный отряд, неофициально известный как «Пацаны», суровые члены которого всегда готовы поставить зазнавшегося героя на место самым жестоким способом.

Страна: США
Студия: Amazon
Продолжительность: ~01:00:00
Перевод №1: Профессиональный (многоголосый закадровый) | AlexFilm
Перевод №2: Профессиональный (многоголосый закадровый) | Jaskier
Перевод №3: Профессиональный (многоголосый закадровый) | NewStudio
Перевод №4: Профессиональный (многоголосый закадровый) | LostFilm*
Перевод №5: Профессиональный (двухголосый закадровый) | Кубик в Кубе
Файл
Кодек: AVC
Качество: WEBRip 720p
Видео: 1280x534 (2.40:1), 23.976 fps, ~ 3200 Kbps
Аудио №1: AC3, 48,0 kHz, 6 ch, 384 kbps | AlexFilm
Аудио №2: AC3, 48,0 kHz, 6 ch, 384 kbps | Jaskier
Аудио №3: AC3, 48,0 kHz, 6 ch, 384 kbps | NewStudio
Аудио №4: AC3, 48,0 kHz, 6 ch, 640 kbps | LostFilm*
Аудио №5: AC3, 48,0 kHz, 6 ch, 448 kbps | Кубик в Кубе
Аудио №6: AC3, 48,0 kHz, 6 ch, 640 kbps | Original
Субтитры: Русские (Forced, Full |«Amazon»|, английские (Forced, Full, SDH)
* отсутствует ненормативная лексика!
Реклама: Отсутствует
Исходник: The.Boys.S02.720p.AMZN.WEBRip.DDP5.1.x264-NTb
Примечание: Release by Kastiel@EniaHD

Список серий:

01. The Big Ride / Крутая заварушка
02. Proper Preparation and Planning / Надлежащая подготовка и планирование
03. Over the Hill with the Swords of a Thousand Men / Тысача людей с мечами рвутся в бой
04. Nothing Like It In the World / В мире такого ещё не видели
05. We Gotta Go Now / Пора делать ноги
06. The Bloody Doors Off / Все на выход блин
07. Butcher, Baker, Candlestick Maker / Бутчер, жнец, и на дуде игрец
08. What I Know / Что мне известно

Релиз

Аудио №4 получено наложением выделенных голосов от «LostFilm» на центр оригинального EAC3
Работа со звуком: itunestv@eniahd

MediaInfo:

Complete name : F:The.Boys_s02_720pThe.Boys.S02E01.720p.AMZN.WEBRip.DDP5.1.x264-NTb_EniaHD.mkv
Format : Matroska
Format version : Version 4 / Version 2
File size : 2.72 GiB
Duration : 1 h 2 min
Overall bit rate : 6 178 kb/s
Movie name : The Boys 02x01 (The Big Ride) - release by Kastiel@EniaHD
Encoded date : UTC 2020-09-19 16:40:10
Writing application : mkvmerge v18.0.0 ('Apricity') 64-bit
Writing library : libebml v1.3.5 + libmatroska v1.4.8
Video
ID : 1
Format : AVC
Format/Info : Advanced Video Codec
Format profile : High@L4.1
Format settings : CABAC / 12 Ref Frames
Format settings, CABAC : Yes
Format settings, ReFrames : 12 frames
Codec ID : V_MPEG4/ISO/AVC
Duration : 1 h 2 min
Bit rate : 3 295 kb/s
Width : 1 280 pixels
Height : 534 pixels
Display aspect ratio : 2.40:1
Frame rate mode : Constant
Frame rate : 23.976 (24000/1001) FPS
Color space : YUV
Chroma subsampling : 4:2:0
Bit depth : 8 bits
Scan type : Progressive
Bits/(Pixel*Frame) : 0.201
Stream size : 1.45 GiB (53%)
Writing library : x264 core 157 r2969 d4099dd
Encoding settings : cabac=1 / ref=12 / deblock=1:-3:-3 / analyse=0x3:0x133 / me=umh / subme=10 / psy=1 / psy_rd=1.00:0.00 / mixed_ref=1 / me_range=48 / chroma_me=1 / trellis=2 / 8x8dct=1 / cqm=0 / deadzone=21,11 / fast_pskip=0 / chroma_qp_offset=-2 / threads=12 / lookahead_threads=4 / sliced_threads=0 / nr=0 / decimate=0 / interlaced=0 / bluray_compat=0 / constrained_intra=0 / bframes=9 / b_pyramid=0 / b_adapt=2 / b_bias=0 / direct=3 / weightb=1 / open_gop=0 / weightp=2 / keyint=250 / keyint_min=23 / scenecut=40 / intra_refresh=0 / rc_lookahead=60 / rc=crf / mbtree=0 / crf=17.0 / qcomp=0.60 / qpmin=0 / qpmax=69 / qpstep=4 / vbv_maxrate=62500 / vbv_bufsize=78125 / crf_max=0.0 / nal_hrd=none / filler=0 / ip_ratio=1.40 / pb_ratio=1.30 / aq=3:0.80
Default : Yes
Forced : No
Audio #1
ID : 2
Format : AC-3
Format/Info : Audio Coding 3
Codec ID : A_AC3
Duration : 1 h 2 min
Bit rate mode : Constant
Bit rate : 384 kb/s
Channel(s) : 6 channels
Channel positions : Front: L C R, Side: L R, LFE
Sampling rate : 48.0 kHz
Frame rate : 31.250 FPS (1536 SPF)
Bit depth : 16 bits
Compression mode : Lossy
Stream size : 173 MiB (6%)
Title : AlexFilm
Language : Russian
Service kind : Complete Main
Default : Yes
Forced : No
Audio #2
ID : 3
Format : AC-3
Format/Info : Audio Coding 3
Codec ID : A_AC3
Duration : 1 h 2 min
Bit rate mode : Constant
Bit rate : 384 kb/s
Channel(s) : 6 channels
Channel positions : Front: L C R, Side: L R, LFE
Sampling rate : 48.0 kHz
Frame rate : 31.250 FPS (1536 SPF)
Bit depth : 16 bits
Compression mode : Lossy
Stream size : 173 MiB (6%)
Title : Jaskier
Language : Russian
Service kind : Complete Main
Default : No
Forced : No
Audio #3
ID : 4
Format : AC-3
Format/Info : Audio Coding 3
Codec ID : A_AC3
Duration : 1 h 2 min
Bit rate mode : Constant
Bit rate : 384 kb/s
Channel(s) : 6 channels
Channel positions : Front: L C R, Side: L R, LFE
Sampling rate : 48.0 kHz
Frame rate : 31.250 FPS (1536 SPF)
Bit depth : 16 bits
Compression mode : Lossy
Stream size : 173 MiB (6%)
Title : NewStudio
Language : Russian
Service kind : Complete Main
Default : No
Forced : No
Audio #4
ID : 5
Format : AC-3
Format/Info : Audio Coding 3
Codec ID : A_AC3
Duration : 1 h 2 min
Bit rate mode : Constant
Bit rate : 640 kb/s
Channel(s) : 6 channels
Channel positions : Front: L C R, Side: L R, LFE
Sampling rate : 48.0 kHz
Frame rate : 31.250 FPS (1536 SPF)
Bit depth : 16 bits
Compression mode : Lossy
Stream size : 288 MiB (10%)
Title : LostFilm
Language : Russian
Service kind : Complete Main
Default : No
Forced : No
Audio #5
ID : 6
Format : AC-3
Format/Info : Audio Coding 3
Codec ID : A_AC3
Duration : 1 h 2 min
Bit rate mode : Constant
Bit rate : 448 kb/s
Channel(s) : 6 channels
Channel positions : Front: L C R, Side: L R, LFE
Sampling rate : 48.0 kHz
Frame rate : 31.250 FPS (1536 SPF)
Bit depth : 16 bits
Compression mode : Lossy
Stream size : 202 MiB (7%)
Title : KvK
Language : Russian
Service kind : Complete Main
Default : No
Forced : No
Audio #6
ID : 7
Format : AC-3
Format/Info : Audio Coding 3
Codec ID : A_AC3
Duration : 1 h 2 min
Bit rate mode : Constant
Bit rate : 640 kb/s
Channel(s) : 6 channels
Channel positions : Front: L C R, Side: L R, LFE
Sampling rate : 48.0 kHz
Frame rate : 31.250 FPS (1536 SPF)
Bit depth : 16 bits
Compression mode : Lossy
Stream size : 288 MiB (10%)
Language : English
Service kind : Complete Main
Default : No
Forced : No
Text #1
ID : 8
Format : UTF-8
Codec ID : S_TEXT/UTF8
Codec ID/Info : UTF-8 Plain Text
Duration : 55 min 56 s
Bit rate : 3 b/s
Count of elements : 26
Stream size : 1.62 KiB (0%)
Title : Forced
Language : Russian
Default : Yes
Forced : No
Text #2
ID : 9
Format : UTF-8
Codec ID : S_TEXT/UTF8
Codec ID/Info : UTF-8 Plain Text
Duration : 55 min 56 s
Bit rate : 4 b/s
Count of elements : 34
Stream size : 1.71 KiB (0%)
Title : Forced |LF|
Language : Russian
Default : No
Forced : No
Text #3
ID : 10
Format : UTF-8
Codec ID : S_TEXT/UTF8
Codec ID/Info : UTF-8 Plain Text
Duration : 1 h 0 min
Bit rate : 109 b/s
Count of elements : 901
Stream size : 48.5 KiB (0%)
Title : Full |Amazon|
Language : Russian
Default : No
Forced : No
Text #4
ID : 11
Format : UTF-8
Codec ID : S_TEXT/UTF8
Codec ID/Info : UTF-8 Plain Text
Duration : 24 s 608 ms
Bit rate : 58 b/s
Count of elements : 8
Stream size : 179 Bytes (0%)
Title : Forced |UK|
Language : English
Default : No
Forced : No
Text #5
ID : 12
Format : UTF-8
Codec ID : S_TEXT/UTF8
Codec ID/Info : UTF-8 Plain Text
Duration : 24 s 608 ms
Bit rate : 58 b/s
Count of elements : 8
Stream size : 179 Bytes (0%)
Title : Forced |US|
Language : English
Default : No
Forced : No
Text #6
ID : 13
Format : UTF-8
Codec ID : S_TEXT/UTF8
Codec ID/Info : UTF-8 Plain Text
Duration : 1 h 2 min
Bit rate : 72 b/s
Count of elements : 1148
Stream size : 33.1 KiB (0%)
Title : Full
Language : English
Default : No
Forced : No
Text #7
ID : 14
Format : UTF-8
Codec ID : S_TEXT/UTF8
Codec ID/Info : UTF-8 Plain Text
Duration : 1 h 2 min
Bit rate : 72 b/s
Count of elements : 1164
Stream size : 33.2 KiB (0%)
Title : SDH
Language : English
Default : No
Forced : No
Menu
00:00:00.000 : en:Amazon Original
00:00:05.000 : en:Ratings
00:00:15.000 : en:Previously On
00:02:58.000 : en:Collateral damage negotiations
00:06:11.000 : en:A memorial service
00:09:42.000 : en:Post-funeral interview
00:11:30.000 : en:Title Sequence | Hughie in bed
00:11:37.000 : en:Getting ready
00:14:30.000 : en:Secret meetings
00:17:17.000 : en:The Deep has a meltdown
00:18:42.000 : en:Watching TV
00:19:48.000 : en:Team arguments
00:21:20.000 : en:Homelander is in power
00:27:03.000 : en:Making money
00:30:02.000 : en:A new patient
00:31:37.000 : en:Watching the tapes
00:33:43.000 : en:Focus groups
00:35:08.000 : en:A safe space
00:38:19.000 : en:What to do next
00:43:05.000 : en:Black mail
00:46:40.000 : en:New kid on the block
00:48:50.000 : en:CIA meeting
00:51:23.000 : en:Homelander confronts Stan
00:56:07.000 : en:An unexpected visit
00:56:40.000 : en:Lies and deceit
01:00:56.000 : en:End Credits

Скриншоты

--Релиз группа: Filmgrad.Ru ->
[filmgrad.ru].t152162.torrent 
 GOLD TORRENT! DOWNLOAD TRAFFIC DOES NOT CONSIDER! 
Torrent: Registered [ 2020-10-14 21:50 ] · 06EC3DE5B133EE2452093E7265C7BE4375FD3AAB

Download .torrent

Download

111 KB

Status: O temporary
Completed: 0 times
Size: 21.9 GB
Оценка:  - (Голосов: 0)
Поблагодарили: 0  Спасибо
terms.php
[Profile] [PM]
Display posts:    
Reply to topic

Current time is: 26-Oct 03:50

All times are UTC + 3



You cannot post new topics in this forum
You cannot reply to topics in this forum
You cannot edit your posts in this forum
You cannot delete your posts in this forum
You cannot vote in polls in this forum
You cannot attach files in this forum
You can download files in this forum