Оборотень / The Wolf of Snow Hollow (2020) WEB-DL [H.264/1080p-LQ]

Reply to topic
DL-List and Torrent activity
Size:  4.24 GB   |    Registered:  12 days   |    Completed:  0 times
Seeders:  6  [  0 KB/s  ]   Leechers:  15  [  0 KB/s  ]   Show peers in full details
 
     
 
 
Author Message

dybrik13 ®

Gender: Male

Longevity: 1 year 8 months

Posts: 8571

Location: Киев

Post 13-Oct-2020 15:59

[Quote]

Оборотень / The Wolf of Snow Hollow- Производство: США / Vanishing Angle, New Form
Жанр: Ужасы, комедия, детектив
Режиссер: Джим Каммингс
Актеры: Джим Каммингс, Рики Линдхоум, Роберт Форстер, Хлоя Ист, Джимми Татро, Маршалл Оллман, Дэниэл Фентон Андерсон, Брайан Эндрюс, Невилл Арчамбо, Коллин Баумм-В живописном городке штата Юта у подножия горного хребта Уосатч происходит ужасающее убийство туристки. За расследование берется шериф Маршалл - нервный мужчина с проблемами управления гневом , переживающий из-за недавнего развода. Когда находят ещё одно растерзанное тело, шериф решает, что в городе завелся серийный убийца, но его помощник уверен, что это дело лап оборотня, ведь оба убийства произошли в полнолуние.
Возраст: 18+ (зрителям, достигшим 18 лет. запрещено для детей)
Рейтинг MPAA: R (лицам до 17 лет обязательно присутствие взрослого)
Дата мировой премьеры: 8 октября 2020
Дата премьеры в России: 10 декабря 2020

Продолжительность: 01:24:43
Качество видео: WEB-DL
Перевод: Многоголосый закадровый, любительский (MUZOBOZ)
Субтитры: Английские
Видео: AVC/H.264, 1920x1040, ~6331 Kbps
Аудио #1: AC3, 2 ch, 192 Kbps - Русский
Аудио #2: AC3, 6 ch, 640 Kbps - Английский

MediaInfo:

Общее
Уникальный идентификатор : 281992979680017157206409175448523338919 (0xD425DF53762A1401B42CB983F7A374A7)
Полное имя : D:\NNM\Оборотень\The.Wolf.of.Snow.Hollow.2020.WEB-DL.1080p-LQ.mkv
Формат : Matroska
Версия формата : Version 4
Размер файла : 4,24 Гбайт
Продолжительность : 1 ч. 24 м.
Общий поток : 7166 Кбит/сек
Название фильма : Оборотень / The Wolf of Snow Hollow (2020)
Дата кодирования : UTC 2020-10-12 11:11:36
Программа кодирования : mkvmerge v25.0.0 ('Prog Noir') 64-bit
Библиотека кодирования : libebml v1.3.6 + libmatroska v1.4.9
Обложка : Yes
Attachments : Cover.jpg
Видео
Идентификатор : 1
Формат : AVC
Формат/Информация : Advanced Video Codec
Профиль формата : High@L4
Настройки формата : CABAC / 4 Ref Frames
Параметр CABAC формата : Да
Параметр RefFrames формата : 4 кадра
Идентификатор кодека : V_MPEG4/ISO/AVC
Продолжительность : 1 ч. 24 м.
Вид битрейта : Постоянный
Битрейт : 6331 Кбит/сек
Номинальный битрейт : 10000 Кбит/сек
Ширина : 1920 пикселей
Высота : 1040 пикселей
Соотношение сторон : 1,85:1
Режим частоты кадров : Постоянный
Частота кадров : 23,976 (24000/1001) кадра/сек
Цветовое пространство : YUV
Субдискретизация насыщенности : 4:2:0
Битовая глубина : 8 бит
Тип развёртки : Прогрессивная
Бит/(Пиксели*Кадры) : 0.132
Размер потока : 3,75 Гбайт (88%)
Заголовок : NTG
Язык : English
Default : Да
Forced : Нет
Цветовой диапазон : Limited
Основные цвета : BT.709
Характеристики трансфера : BT.709
Коэффициенты матрицы : BT.709
Аудио #1
Идентификатор : 2
Формат : AC-3
Формат/Информация : Audio Coding 3
Коммерческое название : Dolby Digital
Идентификатор кодека : A_AC3
Продолжительность : 1 ч. 24 м.
Вид битрейта : Постоянный
Битрейт : 192 Кбит/сек
Каналы : 2 канала
ChannelLayout : L R
Частота : 48,0 КГц
Частота кадров : 31,250 кадров/сек (1536 SPF)
Метод сжатия : С потерями
Размер потока : 116 Мбайт (3%)
Заголовок : MVO [@MUZOBOZ@] MediaBit
Язык : Russian
ServiceKind/String : Complete Main
Default : Да
Forced : Нет
Аудио #2
Идентификатор : 3
Формат : AC-3
Формат/Информация : Audio Coding 3
Коммерческое название : Dolby Digital
Идентификатор кодека : A_AC3
Продолжительность : 1 ч. 24 м.
Вид битрейта : Постоянный
Битрейт : 640 Кбит/сек
Каналы : 6 каналов
ChannelLayout : L R C LFE Ls Rs
Частота : 48,0 КГц
Частота кадров : 31,250 кадров/сек (1536 SPF)
Метод сжатия : С потерями
Размер потока : 388 Мбайт (9%)
Язык : English
ServiceKind/String : Complete Main
Default : Нет
Forced : Нет
Текст
Идентификатор : 4
Формат : UTF-8
Идентификатор кодека : S_TEXT/UTF8
Идентификатор кодека/Информация : UTF-8 Plain Text
Продолжительность : 1 ч. 16 м.
Битрейт : 82 бит/сек
ElementCount : 1278
Размер потока : 46,2 Кбайт (0%)
Заголовок : SDH
Язык : English
Default : Нет
Forced : Нет
Скриншоты: --Релиз группа: Filmgrad.Ru ->
[filmgrad.ru].t152089.torrent 
Torrent: Registered [ 2020-10-13 15:59 ] · 8AF06B98158A49BD6BD4FA79DC5594FAA8C6B97A

Download .torrent

Download

22 KB

Status: checked
Completed: 0 times
Size: 4.24 GB
Оценка:  5 (Голосов: 1)
Поблагодарили: 0  Спасибо
terms.php
[Profile] [PM]
Display posts:    
Reply to topic

Current time is: 26-Oct 03:25

All times are UTC + 3



You cannot post new topics in this forum
You cannot reply to topics in this forum
You cannot edit your posts in this forum
You cannot delete your posts in this forum
You cannot vote in polls in this forum
You cannot attach files in this forum
You can download files in this forum