Дивизия / A Divisão (2020) HDRip от MediaBit | L

Reply to topic
DL-List and Torrent activity
Size:  1.46 GB   |    Registered:  14 days   |    Completed:  1 time
Seeders:  322  [  0 KB/s  ]   Leechers:  27  [  0 KB/s  ]   Show peers in full details
 
     
 
 
Author Message

STALKER ®

Gender: Male

Longevity: 1 year

Posts: 839

Post 15-Sep-2020 01:36

[Quote]

Информация о фильме
Название: Дивизия
Оригинальное название: A Divisão
Год выхода: 2020
Жанр: Боевик, триллер, криминал
Режиссер: Висенте Аморим
В ролях: Эром Кордейру, Тельмо Фернандес, Ванесса Жербелли, Брюс Гомлевски, Силвиу Гиндани, Наталия Лейдж, Маркус Палмейра, Ханна Романацци, Рафаэль Тейшейра, Далтон Виг
О фильме: Фильм основан на реальных событиях. В девяностые годы Рио-де-Жанейро был потрясен огромной серией похищений. Силовики совершенно не знают, что делать, в связи с чем они были вынуждены обратиться за помощью к скандально известным агентам, чтобы те помогли избавиться не только от непосредственно бандитов, но и также от полиции.

Страна: Бразилия
Студия: AfroReggae Audiovisual, Globo Filmes, Hungry Man
Продолжительность: 02:13:50
Перевод: Любительский многоголосый | @MUZOBOZ@
Файл
Кодек: XviD
Качество: HDRip
Видео: 1357 Кбит/с, 720x304, 24.000 кадр/с
Звук: AC3, 48 Гц, 192 Кбит/сек, 2 ch (L + R) | MVO | @MUZOBOZ@

MI

Общее
Полное имя : D:ТоррентыDiviziya.2020.XviD.HDRip-MediaBit.avi
Формат : AVI
Формат/Информация : Audio Video Interleave
Профиль формата : OpenDML
Размер файла : 1,46 Гбайт
Продолжительность : 2 ч. 13 м.
Общий поток : 1 561 Кбит/сек
Название фильма : A DivisГЈo (2020)
Программа кодирования : Lavf58.20.100
Видео
Идентификатор : 0
Формат : MPEG-4 Visual
Профиль формата : Advanced Simple@L5
Настройки формата : BVOP1 / Custom Matrix
Параметр BVOP формата : 1
Параметр QPel формата : Нет
Параметр GMC формата : Без точки перехода
Параметр матрицы формата : Выборочная
Идентификатор кодека : XVID
Идентификатор кодека/Подсказка : XviD
Продолжительность : 2 ч. 13 м.
Битрейт : 1 357 Кбит/сек
Ширина : 720 пикселей
Высота : 304 пикселя
Соотношение сторон : 2,40:1
Частота кадров : 24,000 кадра/сек
Цветовое пространство : YUV
Субдискретизация насыщенности : 4:2:0
Битовая глубина : 8 бит
Тип развёртки : Прогрессивная
Метод сжатия : С потерями
Бит/(Пиксели*Кадры) : 0.258
Размер потока : 1,27 Гбайт (87%)
Заголовок : MediaBit
Библиотека кодирования : XviD 67
Аудио
Идентификатор : 1
Формат : AC-3
Формат/Информация : Audio Coding 3
Коммерческое название : Dolby Digital
Идентификатор кодека : 2000
Продолжительность : 2 ч. 13 м.
Вид битрейта : Постоянный
Битрейт : 192 Кбит/сек
Каналы : 2 канала
Channel layout : L R
Частота : 48,0 КГц
Частота кадров : 31,250 кадров/сек (1536 SPF)
Битовая глубина : 16 бит
Метод сжатия : С потерями
Размер потока : 184 Мбайт (12%)
Выравнивание : Соединение по промежуткам
Продолжительность промежутка : 32 мс. (0,77 видеокадр)
Заголовок : MVO [@MUZOBOZ@] MediaBit
Service kind : Complete Main

Скриншоты

Релиз от: --Релиз группа: Filmgrad.Ru ->
[filmgrad.ru].t150772.torrent 
Torrent: Registered [ 2020-09-15 01:36 ] · 43ED0B5C763092F8FC8874F30BCFF8F9C78A69A3

Download .torrent

Download

18 KB

Status: O temporary
Completed: 1 times
Size: 1.46 GB
Оценка:  5 (Голосов: 1)
Поблагодарили: 0  Спасибо
terms.php
[Profile] [PM]
Display posts:    
Reply to topic

Current time is: 29-Sep 13:40

All times are UTC + 3



You cannot post new topics in this forum
You cannot reply to topics in this forum
You cannot edit your posts in this forum
You cannot delete your posts in this forum
You cannot vote in polls in this forum
You cannot attach files in this forum
You can download files in this forum