Дурная слава (Печально известные) / Infamous (Джошуа Колдуэлл) [2020, Криминал, мелодрама, WEB-DLRip] [DUB] [iTunes]

Reply to topic
DL-List and Torrent activity
Size:  1.46 GB   |    Registered:  15 days   |    Completed:  0 times
Seeders:  4  [  0 KB/s  ]   Leechers:  4  [  0 KB/s  ]   Show peers in full details
 
     
 
 
Author Message

ZUBDOLGOPA ®

Gender: Male

Longevity: 9 months 15 days

Posts: 624

Location: Долгопрудный

Post 14-Sep-2020 09:11

[Quote]

Информация о фильме
Название: Дурная слава (Печально известные)
Оригинальное название: Infamous
Год выхода: 2020
Жанр: Криминал, мелодрама
Страна: США
Перевод: Дублированный [iTunes]
Продолжительность: 01:40:23
Режиссер: Джошуа Колдуэлл--В ролях: Белла Торн, Джейк Мэнли, Эмбер Райли, Майкл Сироу, Мариса Кохлан, Аалайя Мухаммад, Мэдисон Бриди, Роуз Лэйн Санфилиппо, Дэймон Карни, Джои Оглсби и др.--О фильме: Парочка решает заработать денег грабежами, но им кажется, что этого мало, и они начинают выкладывать свои «подвиги» в социальных сетях, получая дополнительную известность и славу. Но такая беззаботная жизнь не может длиться долго.--Файл
Качество видео: WEB-DLRip (Amazon)
Видео: XviD, 720x304, ~1687 Kbps
Аудио: AC-3, 6 ch, 384 Kbps
Субтитры: Русские (Full), английские (Full)--

Тех.данные видеофайла

Общее
Полное имя : D:\NNM\Дурная слава\Infamous.2020.WEB-DLRip\Infamous.2020.WEB-DLRip.avi
Формат : AVI
Формат/Информация : Audio Video Interleave
Размер файла : 1,46 Гбайт
Продолжительность : 1 ч. 40 м.
Общий поток : 2080 Кбит/сек
Программа кодирования : VirtualDubMod 1.5.10.3 | www.virtualdub-fr.org || (build 2550/release)
Библиотека кодирования : VirtualDubMod build 2550/release
Видео
Идентификатор : 0
Формат : MPEG-4 Visual
Профиль формата : Advanced Simple@L5
Настройки формата : BVOP1 / Custom Matrix
Параметр BVOP формата : 1
Параметр QPel формата : Нет
Параметр GMC формата : Без точки перехода
Параметр матрицы формата : Выборочная
Идентификатор кодека : XVID
Идентификатор кодека/Подсказка : XviD
Продолжительность : 1 ч. 40 м.
Битрейт : 1687 Кбит/сек
Ширина : 720 пикселей
Высота : 304 пикселя
Соотношение сторон : 2,35:1
Частота кадров : 23,976 (24000/1001) кадра/сек
Цветовое пространство : YUV
Субдискретизация насыщенности : 4:2:0
Битовая глубина : 8 бит
Тип развёртки : Прогрессивная
Метод сжатия : С потерями
Бит/(Пиксели*Кадры) : 0.321
Размер потока : 1,18 Гбайт (81%)
Библиотека кодирования : XviD 1.2.1 (UTC 2008-12-04)
Аудио
Идентификатор : 1
Формат : AC-3
Формат/Информация : Audio Coding 3
Коммерческое название : Dolby Digital
Идентификатор кодека : 2000
Продолжительность : 1 ч. 40 м.
Вид битрейта : Постоянный
Битрейт : 384 Кбит/сек
Каналы : 6 каналов
ChannelLayout : L R C LFE Ls Rs
Частота : 48,0 КГц
Частота кадров : 31,250 кадров/сек (1536 SPF)
Метод сжатия : С потерями
Размер потока : 276 Мбайт (18%)
Выравнивание : Разделение по промежуткам
Продолжительность промежутка : 42 мс. (1,00 видеокадр)
Время предзагрузки промежутка : 500 мс.
ServiceKind/String : Complete Main

Скриншоты

[filmgrad.ru].t150763.torrent 
Torrent: Registered [ 2020-09-14 09:11 ] · 1524BD23028333CE142273CE3E804239D973C767

Download .torrent

Download

16 KB

Status: checked
Completed: 0 times
Size: 1.46 GB
Оценка:  - (Голосов: 0)
Поблагодарили: 0  Спасибо
terms.php
[Profile] [PM]
Display posts:    
Reply to topic

Current time is: 30-Sep 00:03

All times are UTC + 3



You cannot post new topics in this forum
You cannot reply to topics in this forum
You cannot edit your posts in this forum
You cannot delete your posts in this forum
You cannot vote in polls in this forum
You cannot attach files in this forum
You can download files in this forum