Папина дочка / The Lost Prince / Le Prince oublié (Мишель Хазанавичус) [2020, Фэнтези, комедия, приключения, семейный, HDRip] [MVO] [@MUZOBOZ@]

Reply to topic
DL-List and Torrent activity
Size:  2.19 GB   |    Registered:  16 days   |    Completed:  0 times
Seeders:  4  [  0 KB/s  ]   Leechers:  1  [  0 KB/s  ]   Show peers in full details
 
     
 
 
Author Message

ZUBDOLGOPA ®

Gender: Male

Longevity: 9 months 16 days

Posts: 626

Location: Долгопрудный

Post 14-Sep-2020 05:45

[Quote]

Информация о фильме
Название: Папина дочка
Оригинальное название: Le prince oublié
Год выхода: 2020
Жанр: фэнтези, комедия, приключения, семейный
Режиссер: Мишель Хазанавичус--В ролях: Омар Си, Кейла Фала, Сара Гэй, Беренис Бежо, Франсуа Дамиенс, Неотис Ронзон, Филипп Вие, Филипп Юшан, Лионель Лаже, Филипп Эриссон--О фильме:
Перед сном Джиби всегда рассказывал своей маленькой дочери сказки. Вместе они придумали волшебный мир, где живут крошечные феи и величественные драконы, а папа всегда спасает принцессу-дочь от любых опасностей. Но однажды в их сказочном мире появляется новый принц - одноклассник повзрослевшей Софии, а Джиби отправляется в страшную страну Забытья. Джиби нужно выбраться из грустной сказки и найти способ остаться для своей дочери героем и в реальной жизни.-- --Страна: Франция, Бельгия
Продолжительность: 01:42:18
Перевод: Любительский (многоголосый,закадровый) [@MUZOBOZ@]--Файл
Качество: HDRip
Видео: XviD, 2400 Кбит/с, 720x304
Аудио: Русский (AC3, 2 ch, 192 Кбит/с), французский (AC3, 6 ch, 448 Кбит/с)
Субтитры: Русские, полные ("Весёлый гном"), французские, полные--

Тех.данные видеофайла

Общее
Полное название: The Lost Prince. (2020) .HDRip..avi.
Формат: AVI
Формат / информация: Audio Video Interleave
Профиль формата: OpenDML
Размер файла: 2,18 Гбайт
Продолжительность: 1 ч. 42 м.
Общая скорость передачи данных: 3058 Кбит / с
Написание приложения: VirtualDubMod 1.5.10.3 | www.virtualdub-fr.org || (сборка 2550 / выпуск)
Библиотека написания: VirtualDubMod build 2550 / release
видео
ID: 0
Формат: MPEG-4 Visual
Профиль формата: Advanced Simple @ L5
Настройки формата, BVOP: 1
Настройки формата, QPel: Нет
Настройки формата, GMC: без варпоинтов
Настройки формата, матрица: по умолчанию (MPEG)
Идентификатор кодека: XVID
Идентификатор кодека / подсказка: XviD
Продолжительность: 1 ч. 42 м.
Битрейт: 2400 Кбит / с
Ширина: 720 пикселей
Высота: 304 пикселей
Соотношение сторон экрана: 2,35: 1
Частота кадров: 23,976 кадра в секунду
Цветовое пространство: YUV
Подвыборка цветности: 4: 2: 0
Битовая глубина: 8 бит
Тип развертки: прогрессивный
Режим сжатия: с потерями
Биты / (пиксель * кадр): 0,457
Размер потока: 1,71 Гбайт (78%)
Библиотека написания: XviD 1.2.1 (UTC 2008-12-04)
Аудио # 1
ID: 1
Формат: AC-3
Формат / информация: Audio Coding 3
Расширение режима: CM (полный основной)
Идентификатор кодека: 2000
Продолжительность: 1 ч. 42 м.
Режим битовой скорости: постоянный
Битрейт: 192 Кбит / с
Канал (ы): 2 канала
Позиции каналов: Фронт: LR
Частота дискретизации: 48,0 кГц
Битовая глубина: 16 бит
Режим сжатия: с потерями
Размер потока: 140 Мбайт (6%)
Выравнивание: разделение по чередованию
Чередование, длительность: 42 мс (1,00 кадр видео)
Чередование, продолжительность предварительной нагрузки: 500 мс
Аудио # 2
ID: 2
Формат: AC-3
Формат / информация: Audio Coding 3
Расширение режима: CM (полный основной)
Идентификатор кодека: 2000
Продолжительность: 1 ч. 42 м.
Режим битовой скорости: постоянный
Битрейт: 448 Кбит / с
Канал (ы): 6 каналов
Позиции каналов: спереди: LCR, сбоку: LR, LFE
Частота дискретизации: 48,0 кГц
Битовая глубина: 16 бит
Режим сжатия: с потерями
Размер потока: 328 Мбайт (15%)
Выравнивание: разделение по чередованию
Чередование, длительность: 42 мс (1,00 кадр видео)
Чередование, продолжительность предварительной нагрузки: 500 мс

Скриншоты

[filmgrad.ru].t150761.torrent 
Torrent: Registered [ 2020-09-14 05:45 ] · EB4AC1FD679E875ACBDF87A8DCD858767A14BCBC

Download .torrent

Download

12 KB

Status: checked
Completed: 0 times
Size: 2.19 GB
Оценка:  - (Голосов: 0)
Поблагодарили: 0  Спасибо
terms.php
[Profile] [PM]
Display posts:    
Reply to topic

Current time is: 30-Sep 12:45

All times are UTC + 3



You cannot post new topics in this forum
You cannot reply to topics in this forum
You cannot edit your posts in this forum
You cannot delete your posts in this forum
You cannot vote in polls in this forum
You cannot attach files in this forum
You can download files in this forum