Явление / Fatima (Марко Понтекорво) [2020, драма, WEB-DL 1080p] [DUB] [iTunes]

Reply to topic
DL-List and Torrent activity
Size:  3.73 GB   |    Registered:  16 days   |    Completed:  0 times
Seeders:  133  [  0 KB/s  ]   Leechers:  26  [  0 KB/s  ]   Show peers in full details
 
     
 
 
Author Message

ZUBDOLGOPA ®

Gender: Male

Longevity: 9 months 15 days

Posts: 625

Location: Долгопрудный

Post 13-Sep-2020 01:55

[Quote]

Информация о фильме
Название: Явление
Оригинальное название: Fatima
Год выхода: 2020
Жанр: драма
Режиссер: Марко Понтекорво--В ролях: Эстефания Джил, Лусия Монис, Горан Вишнич, Харви Кейтель, Соня Брага, Хорхе Ламелас, Алехандра Ховард, Марко Де Альмейда, Жуана Рибейру, Жоаки де Алмейда--О фильме: 1917 год. Европа в огне Первой мировой войны. Близ португальского местечка Фатима трем детям-пастушкам является Дева Мария и открывает им три тайны о судьбах мира и России…--Выпущено: США / Origin Entertainment, Panorama Films, Rose Pictures
Продолжительность: 01:48:05
Озвучивание: Дублированное iTunes--Файл
Формат: MKV
Качество: WEB-DL 1080p
Видео: MPEG-4 AVC, 4548 Kb/s, 1920x804
Аудио: Russian: 48 kHz, AC3 Dolby Digital, 3/2 (L, C, R, l, r) + LFE ch, ~384 Kbps
Субтитры: Нет
Дополнительно: Сохранены оригинальные чаптеры.--Релиз от: --

Тех.данные видеофайла

Video
ID: 1
Format: AVC
Format/Info: Advanced Video Codec
Format profile: High@L4
Format settings: CABAC / 5 Ref Frames
Format settings, CABAC: Yes
Format settings, Reference: 5 frames
Codec ID: V_MPEG4/ISO/AVC
Duration: 1 h 48 min
Bit rate: 4 548 kb/s
Width: 1 920 pixels
Height: 804 pixels
Display aspect ratio: 2.40:1
Frame rate mode: Constant
Frame rate: 25.000 FPS
Color space: YUV
Chroma subsampling: 4:2:0
Bit depth: 8 bits
Scan type: Progressive
Bits/(Pixel*Frame): 0.118
Stream size: 3.43 GiB (92%)
Title: FATIMA_2020_WEB-DL_1080p-BLUEBIRD
Language: English
Default: Yes
Forced: No
Color range: Limited
Color primaries: BT.709
Transfer characteristics: BT.709
Matrix coefficients: BT.709
Audio
ID: 2
Format: AC-3
Format/Info: Audio Coding 3
Commercial name: Dolby Digital
Codec ID: A_AC3
Duration: 1 h 48 min
Bit rate mode: Constant
Bit rate: 384 kb/s
Channel(s): 6 channels
Channel layout: L R C LFE Ls Rs
Sampling rate: 48.0 kHz
Frame rate: 31.250 FPS (1536 SPF)
Compression mode: Lossy
Delay relative to video: -40 ms
Stream size: 297 MiB (8%)
Title: [DUB] DD 5.1 @ 384 kbps (iTunes)
Language: Russian
Service kind: Complete Main
Default: Yes
Forced: No
Menu
00:00:00.000: en:Глава 1
00:03:51.280: en:Глава 2
00:07:59.240: en:Глава 3
00:13:41.440: en:Глава 4
00:20:54.360: en:Глава 5
00:29:16.120: en:Глава 6
00:34:51.480: en:Глава 7
00:46:11.880: en:Глава 8
00:53:13.360: en:Глава 9
01:00:52.640: en:Глава 10
01:09:15.480: en:Глава 11
01:21:13.200: en:Глава 12
01:28:52.560: en:Глава 13
01:34:06.720: en:Глава 14
01:42:29.960: en:Глава 15

Скриншоты

[filmgrad.ru].t150706.torrent 
Torrent: Registered [ 2020-09-13 01:55 ] · 8BD192297156F87A00552C15BB7C8AD01268A48D

Download .torrent

Download

10 KB

Status: checked
Completed: 0 times
Size: 3.73 GB
Оценка:  - (Голосов: 0)
Поблагодарили: 0  Спасибо
terms.php
[Profile] [PM]
Display posts:    
Reply to topic

Current time is: 29-Sep 13:14

All times are UTC + 3



You cannot post new topics in this forum
You cannot reply to topics in this forum
You cannot edit your posts in this forum
You cannot delete your posts in this forum
You cannot vote in polls in this forum
You cannot attach files in this forum
You can download files in this forum