Сила стихии (Сила природы) / Force of Nature (Майкл Полиш) [2020, боевик, драма, WEB-DL 1080p] [DUB] [iTunes]

Reply to topic
DL-List and Torrent activity
Size:  3.28 GB   |    Registered:  16 days   |    Completed:  1 time
Seeders:  215  [  0 KB/s  ]   Leechers:  10  [  0 KB/s  ]   Show peers in full details
 
     
 
 
Author Message

ZUBDOLGOPA ®

Gender: Male

Longevity: 9 months 15 days

Posts: 624

Location: Долгопрудный

Post 13-Sep-2020 01:01

[Quote]

Информация о фильме
Название: Сила стихии (Сила природы)
Оригинальное название: Force of Nature
Год выхода: 2020
Жанр: боевик, драма
Режиссер: Майкл Полиш--В ролях: Мэл Гибсон, Кейт Босворт, Эмиль Хирш, Дэвид Зайас, Стефани Кайо, Тайлер Джон Олсон, Уильям Кэтлетт, Джаспер Полиш, Свен Теммел, Джеси Маккинни, Рей Эрнандес, Лесли Эмметт, Анил Раман, Себастьян Васкес, Хулио Рамос Велес--О фильме: Детектив полиции в отставке во время урагана вместе с остальными жильцами оказывается в ловушке в многоэтажном здании. Там же группа опасных преступников планирует провернуть ограбление.--Выпущено: США / Emmett/Furla Films, FON Film Production, Force of Nature Film
Продолжительность: 01:34:43
Озвучивание: Дублированное iTunes
Примечание: iTunes версия длиннее BD версии на ~ 4 минуты!--Файл
Формат: MKV
Качество: WEB-DL 1080p
Видео: MPEG-4 AVC, 4568 Kb/s, 1920x804
Аудио: Russian: 48 kHz, AC3 Dolby Digital, 3/2 (L, C, R, l, r) + LFE ch, ~384 Kbps
Субтитры: Нет
Дополнительно: Сохранены оригинальные чаптеры.--Релиз группы: --

Тех.данные видеофайла

Complete name: Sila.stihii.2020.WEB-DL1080p.ELEKTRI4KA.UNIONGANG.mkv
Format: Matroska
Format version: Version 4 / Version 2
File size: 3.28 GiB
Duration: 1 h 34 min
Overall bit rate: 4 953 kb/s
Movie name: .ELEKTRI4KA.UNIONGANG.
Encoded date: UTC 2020-09-12 15:07:52
Writing application: mkvmerge v8.3.0 ('Over the Horizon') 64bit
Writing library: libebml v1.3.1 + libmatroska v1.4.2
Video
ID: 1
Format: AVC
Format/Info: Advanced Video Codec
Format profile: High@L4
Format settings, CABAC: Yes
Format settings, Reference frames: 5 frames
Codec ID: V_MPEG4/ISO/AVC
Duration: 1 h 34 min
Bit rate: 4 568 kb/s
Width: 1 920 pixels
Height: 804 pixels
Display aspect ratio: 2.40:1
Frame rate mode: Constant
Frame rate: 24.000 FPS
Color space: YUV
Chroma subsampling: 4:2:0
Bit depth: 8 bits
Scan type: Progressive
Bits/(Pixel*Frame): 0.123
Stream size: 3.02 GiB (92%)
Title: .ELEKTRI4KA.UNIONGANG.
Language: English
Default: Yes
Forced: No
Color range: Limited
Color primaries: BT.709
Transfer characteristics: BT.709
Matrix coefficients: BT.709
Audio
ID: 2
Format: AC-3
Format/Info: Audio Coding 3
Mode extension: CM (complete main)
Format settings, Endianness: Big
Codec ID: A_AC3
Duration: 1 h 34 min
Bit rate mode: Constant
Bit rate: 384 kb/s
Channel(s): 6 channels
Channel positions: Front: L C R, Side: L R, LFE
Sampling rate: 48.0 kHz
Frame rate: 31.250 FPS (1536 spf)
Bit depth: 16 bits
Compression mode: Lossy
Stream size: 260 MiB (8%)
Title: iTunes
Language: Russian
Default: Yes
Forced: No
Menu
00:00:00.000: en:Глава 1
00:09:00.833: en:Глава 2
00:17:30.499: en:Глава 3
00:26:29.915: en:Глава 4
00:35:09.873: en:Глава 5
00:43:25.831: en:Глава 6
00:51:58.122: en:Глава 7
01:00:26.538: en:Глава 8
01:08:35.121: en:Глава 9
01:17:09.246: en:Глава 10
01:25:45.204: en:Глава 11

Скриншоты

[filmgrad.ru].t150705.torrent 
Torrent: Registered [ 2020-09-13 01:01 ] · C626E4B8CD3E3089609F207B6C5342FF71FAEFE9

Download .torrent

Download

9 KB

Status: checked
Completed: 1 times
Size: 3.28 GB
Оценка:  - (Голосов: 0)
Поблагодарили: 0  Спасибо
terms.php
[Profile] [PM]
Display posts:    
Reply to topic

Current time is: 30-Sep 00:11

All times are UTC + 3



You cannot post new topics in this forum
You cannot reply to topics in this forum
You cannot edit your posts in this forum
You cannot delete your posts in this forum
You cannot vote in polls in this forum
You cannot attach files in this forum
You can download files in this forum