Видоизмененный углерод / Altered Carbon / Сезон: 1-2 из 2 / Серии: 1-18 из 18 (Ута Бризвитц, Питер Хор, Ник Харран) [2018-2020, США, фантастика, детектив, фильм-нуар, боевик, WEB-DLRip] MVO (AlexFilm)

Reply to topic
DL-List and Torrent activity
Size:  15.83 GB   |    Registered:  17 days   |    Completed:  0 times

Seeder not seen: Never

 
     
 
 
Author Message

Grant_75 ®

Gender: Male

Longevity: 1 year 5 months

Posts: 285

Post 12-Sep-2020 11:55

[Quote]

Видоизмененный углерод / Altered Carbon
Год выпуска: 2018 - 2020
Страна: США
Жанр: фантастика, детектив, фильм-нуар, боевик
Продолжительность: 00:58:53
Перевод: Профессиональный (многоголосый закадровый) - AlexFilm
Режиссёр: Ута Бризвитц, Питер Хор, Ник Харран
В ролях: Юэль Киннаман, Джеймс Пьюрфой, Марта Игареда, Крис Коннер, Дичен Лакмэн, Ато Эссонда, Кристин Леман, Треу Трэн, Рене Голдсберри, Хиро Канагава
Описание: Земля, XXVII век. Мир, в котором появилась возможность «сгружать» человеческое сознание и личность из одного тела в другое. Идеальный мир и для преступников, и для полицейских, и для армии… но вряд ли идеальный для бывшего военного спецназовца Такеси Ковача, которого миллиардер Бэнкрофт нанял… для расследования гибели одного из своих тел. Внешне — явное самоубийство. В действительности — явное убийство. Вот только воспоминания об убийце уничтожены вместе с телом-клоном… С чего начать?!
Сэмпл
Ссылка на предыдущие и альтернативные раздачи
Качество: WEB-DLRip
Формат: AVI
Видео: 704x352 (2.00:1), 23.976 fps, XviD build 73 ~1999 kbps avg, 0.34 bit/pixel
Аудио: 48 kHz, AC3 Dolby Digital, 3/2 (L,C,R,l,r) + LFE ch, ~448 kbps - 1 сезон
Аудио: 48 kHz, AC3 Dolby Digital, 3/2 (L,C,R,l,r) + LFE ch, ~384 kbps - 2 сезон
Субтитры: отсутствуют
Реклама: вырезана полностью

Список серий

1 сезон
01 (01) - Из прошлого / Out of the Past
02 (02) - Падший ангел / Fallen Angel
03 (03) - В укромном месте / In a Lonely Place
04 (04) - Силы зла / Force of Evil
05 (05) - Не тот человек / The Wrong Man
06 (06) - Человек с моим лицом / Man with My Face
07 (07) - Бездомный пёс / Nora Inu
08 (08) - Стычка в ночи / Clash by Night
09 (09) - Ярость в небесах / Rage in Heaven
10 (10) - Убийцы / The Killers
2 сезон
01 (11) - Леди-призрак / Phantom Lady
02 (12) - Отсроченный платёж / Payment Deferred
03 (13) - Аллея кошмаров / Nightmare Alley
04 (14) - Тень сомнения / Shadow of a Doubt
05 (15) - Ночной кошмар / I Wake Up Screaming
06 (16) - Похорони меня мёртвой / Bury Me Dead
07 (17) - Рискованный эксперимент / Experiment Perilous
08 (18) - Сломленные ангелы / Broken Angels

MediaInfo

Общее
Полное имя : X:\Уже готовые к раздачам\Altered.Carbon.2018.web-dlrip_[teko]\Season_01\s01e01_Out.of.the.Past.avi
Формат : AVI
Формат/Информация : Audio Video Interleave
Размер файла : 1,01 Гбайт
Продолжительность : 58 м. 53 с.
Общий поток : 2450 Кбит/сек
Программа кодирования : VirtualDubMod 1.5.10.3 | www.virtualdub-fr.org || (build 2550/release)
Библиотека кодирования : VirtualDubMod build 2550/release
Видео
Идентификатор : 0
Формат : MPEG-4 Visual
Профиль формата : Advanced Simple@L5
Настройки формата : BVOP2 / Custom Matrix
Параметр BVOP формата : 2
Параметр QPel формата : Нет
Параметр GMC формата : Без точки перехода
Параметр матрицы формата : Выборочная
Идентификатор кодека : XVID
Идентификатор кодека/Подсказка : XviD
Продолжительность : 58 м. 53 с.
Битрейт : 2000 Кбит/сек
Ширина : 704 пикселя
Высота : 352 пикселя
Соотношение сторон : 2,000
Частота кадров : 23,976 (24000/1001) кадра/сек
Частота кадров в оригинале : 23,976 (23976/1000) кадра/сек
Цветовое пространство : YUV
Субдискретизация насыщенности : 4:2:0
Битовая глубина : 8 бит
Тип развёртки : Прогрессивная
Метод сжатия : С потерями
Бит/(Пиксели*Кадры) : 0.337
Размер потока : 842 Мбайт (82%)
Библиотека кодирования : XviD 73
Аудио
Идентификатор : 1
Формат : AC-3
Формат/Информация : Audio Coding 3
Коммерческое название : Dolby Digital
Идентификатор кодека : 2000
Продолжительность : 58 м. 2 с.
Вид битрейта : Постоянный
Битрейт : 448 Кбит/сек
Каналы : 6 каналов
ChannelLayout : L R C LFE Ls Rs
Частота : 48,0 КГц
Частота кадров : 31,250 кадров/сек (1536 SPF)
Метод сжатия : С потерями
Размер потока : 186 Мбайт (18%)
Выравнивание : Разделение по промежуткам
Продолжительность промежутка : 42 мс. (1,01 видеокадр)
Время предзагрузки промежутка : 500 мс.
ServiceKind/String : Complete Main
Релиз группы----Релиз группа: Filmgrad.Ru ->
[filmgrad.ru].t150701.torrent 
Torrent: Registered [ 2020-09-12 11:55 ] · 7EF6BD048D490FC7C845CBC12FE503BA4D14FC92

Download .torrent

Download

160 KB

Status: checked
Completed: 0 times
Size: 15.83 GB
Оценка:  - (Голосов: 0)
Поблагодарили: 0  Спасибо
terms.php
[Profile] [PM]
Display posts:    
Reply to topic

Current time is: 29-Sep 23:41

All times are UTC + 3



You cannot post new topics in this forum
You cannot reply to topics in this forum
You cannot edit your posts in this forum
You cannot delete your posts in this forum
You cannot vote in polls in this forum
You cannot attach files in this forum
You can download files in this forum