Агент Ева / Ava (Тейт Тейлор / Tate Taylor) [2020, США, боевик, триллер, драма, криминал, детектив, BDRip] Dub (iTunes)

Reply to topic
DL-List and Torrent activity
Size:  1.46 GB   |    Registered:  17 days   |    Completed:  2 times
Seeders:  8  [  0 KB/s  ]   Leechers:  4  [  0 KB/s  ]   Show peers in full details
 
     
 
 
Author Message

Grant_75 ®

Gender: Male

Longevity: 1 year 5 months

Posts: 296

Post 12-Sep-2020 11:19

[Quote]

Агент Ева / Ava
Страна: США
Жанр: боевик, триллер, драма, криминал, детектив
Год выпуска: 2020
Продолжительность: 01:36:49-Перевод: Профессиональный (дублированный) | iTunes
Субтитры: нет
Оригинальная аудиодорожка: нет-Режиссер:
Тейт Тейлор / Tate Taylor-В ролях:
Джессика Честейн, Коммон, Джон Малкович, Колин Фаррелл, Джина Дэвис, Диана Сильверс, Йоан Гриффит, Джоан Чен, Джесс Вейкслер, Джанель Фейгли-Описание: Она умна, красива и чрезвычайно опасна. Перемещаясь по миру словно тень, агент по имени Ева в одиночку выполняет самые сложные задания своего руководства. Внезапно, когда очередная спецоперация идет не по плану, и Ева решает выйти из игры, один из влиятельных боссов секретной службы открывает на неё охоту.- -Качество видео: BDRip | AVA_2020_RMX_BLUEBIRD
Формат видео: AVI
Видео: 720x304 (2.37:1), 23.976 fps, XviD build 73 ~1759 kbps avg, 0.34 bit/pixel
Аудио: 48 kHz, AC3 Dolby Digital, 3/2 (L,C,R,l,r) + LFE ch, ~384 kbps-Сэмпл-

MediaInfo

Код:
Формат : AVI
Формат/Информация : Audio Video Interleave
Размер файла : 1,46 Гбайт
Продолжительность : 1 ч. 36 м.
Общий поток : 2 153 Кбит/сек
Название фильма : Агент Ева_2020_BDRip
Программа кодирования : VirtualDubMod 1.5.10.3 | www.virtualdub-fr.org || (build 2550/release)
Авторское право : порошков
Видео
Идентификатор : 0
Формат : MPEG-4 Visual
Профиль формата : Advanced Simple@L5
Настройки формата : BVOP1 / Custom Matrix
Параметр BVOP формата : 1
Параметр QPel формата : Нет
Параметр GMC формата : Без точки перехода
Параметр матрицы формата : Выборочная
Идентификатор кодека : XVID
Идентификатор кодека/Подсказка : XviD
Продолжительность : 1 ч. 36 м.
Битрейт : 1 759 Кбит/сек
Ширина : 720 пикселей
Высота : 304 пикселя
Соотношение сторон : 2,35:1
Частота кадров : 23,976 (24000/1001) кадра/сек
Цветовое пространство : YUV
Субдискретизация насыщенности : 4:2:0
Битовая глубина : 8 бит
Тип развёртки : Прогрессивная
Метод сжатия : С потерями
Бит/(Пиксели*Кадры) : 0.335
Размер потока : 1,19 Гбайт (82%)
Библиотека кодирования : XviD 73
Аудио
Идентификатор : 1
Формат : AC-3
Формат/Информация : Audio Coding 3
Коммерческое название : Dolby Digital
Идентификатор кодека : 2000
Продолжительность : 1 ч. 36 м.
Вид битрейта : Постоянный
Битрейт : 384 Кбит/сек
Каналы : 6 каналов
Channel layout : L R C LFE Ls Rs
Частота : 48,0 КГц
Частота кадров : 31,250 кадров/сек (1536 SPF)
Метод сжатия : С потерями
Размер потока : 266 Мбайт (18%)
Выравнивание : Разделение по промежуткам
Продолжительность промежутка : 42 мс. (1,00 видеокадр)
Время предзагрузки промежутка : 500 мс.
Service kind : Complete Ma

Скриншоты


--Релиз группа: Filmgrad.Ru ->
[filmgrad.ru].t150700.torrent 
Torrent: Registered [ 2020-09-12 11:19 ] · 91C1D70DA3EE13B8E91B129B8696C69F824509E0

Download .torrent

Download

15 KB

Status: checked
Completed: 2 times
Size: 1.46 GB
Оценка:  - (Голосов: 0)
Поблагодарили: 0  Спасибо
terms.php
[Profile] [PM]
Display posts:    
Reply to topic

Current time is: 30-Sep 11:19

All times are UTC + 3



You cannot post new topics in this forum
You cannot reply to topics in this forum
You cannot edit your posts in this forum
You cannot delete your posts in this forum
You cannot vote in polls in this forum
You cannot attach files in this forum
You can download files in this forum