Фитнес / Сезон: 2 / Серии: 1-20 из 20 (Кирилл Васильев) [2019, комедия, WEB-DL 2160p]

Reply to topic
DL-List and Torrent activity
Size:  92.05 GB   |    Registered:  18 days   |    Completed:  0 times
Seeders:  3  [  0 KB/s  ]   Leechers:  12  [  0 KB/s  ]   Show peers in full details
 
     
 
 
Author Message

Grant_75 ®

Gender: Male

Longevity: 1 year 5 months

Posts: 296

Post 12-Sep-2020 04:24

[Quote]

Фитнес- Год выпуска: 2019
Производство: Yellow, Black and White
Жанр: комедия
Продолжительность: 20 x ~ 00:24:00
Субтитры: Нет-КиноПоискКино-ТеатрMyShowsIMDb-Режиссёр: Кирилл Васильев
В ролях: Софья Зайка, Михаил Трухин, Татьяна Храмова, Роман Курцын, Алексей Демидов, Борис Дергачев, Марианна Шульц, Ольга Баранова, Анна Лауренская, Татьяна Сомова, Мария Малиновская, Александр Семчев, Данила Якушев, Евгений Михеев, Дмитрий Чеботарёв, Елизавета Мартинес, Ирина Бякова, Андрей Пынзару-Описание: С тех пор, как полноватая продавщица Ася Королева устроилась работать в фитнес-клуб, прошло полгода. Сейчас в ее жизни все по-другому: карьера, увлечения, фигура, друзья и любовь. Вот только путь к идеальным отношениям оказался сложнее пути к идеальному телу. Пытаясь не потерять любовь и доверие друг друга, Ася и Боря ежедневно испытывают отношения на прочность. Своим опытом в любви и спорте Ася делится с подписчиками фитнес-блога, и, увлекаясь, готова выпустить в эфир все: от тренировки до свидания.
Тем временем, в клубе «СуперФит» появляется массажист. Заносчивый и высокомерный Фил действует на нервы всему тренерскому составу. И пока Олег ищет способы избавиться от конкурента, кое-кто из сотрудников клуба все-таки проникается симпатией к новичку. Сможет ли Ася сохранить мир и на работе, и в личной жизни?-Релиз: karvai
Реклама: Нет
Доп. информация: Источник START (присутствует логотип видеосервиса)
Скачать сэмпл-Качество: WEB-DL 2160p
Формат: MKV
Видео кодек: H.264
Аудио кодек: AAC
Видео: MPEG-4 (AVC), 3840х2160 (16:9), 25 fps, ~ 28.0 Mbps, 0.135 bit/pixel
Аудио: AAC, 48.0 kHz, 2 ch, 256 Kbps-

MediaInfo

General
Unique ID : 216318183073872248190475521199757202033 (0xA2BD5DDB725BA118DF334E3339EA1271)
Complete name : Фитнес (2019) - 2 Сезон - WEB-DL 2160p/Фитнес (2019) - S2E01 - WEB-DL 2160p.mkv
Format : Matroska
Format version : Version 4
File size : 4.75 GiB
Duration : 24mn 28s
Overall bit rate : 27.8 Mbps
Encoded date : UTC 2020-09-11 19:17:22
Writing application : mkvmerge v48.0.0 ('Fortress Around Your Heart') 64-bit
Writing library : libebml v1.4.0 + libmatroska v1.6.0
Video
ID : 1
Format : AVC
Format/Info : Advanced Video Codec
Format profile : High@L5.1
Format settings : CABAC / 4 Ref Frames
Format settings, CABAC : Yes
Format settings, ReFrames : 4 frames
Codec ID : V_MPEG4/ISO/AVC
Duration : 24mn 28s
Bit rate : 28.0 Mbps
Width : 3 840 pixels
Height : 2 160 pixels
Display aspect ratio : 16:9
Frame rate mode : Constant
Frame rate : 25.000 fps
Color space : YUV
Chroma subsampling : 4:2:0
Bit depth : 8 bits
Scan type : Progressive
Bits/(Pixel*Frame) : 0.135
Stream size : 4.71 GiB (99%)
Writing library : x264 core 152
Encoding settings : cabac=1 / ref=2 / deblock=1:0:0 / analyse=0x3:0x113 / me=hex / subme=6 / psy=1 / psy_rd=1.00:0.00 / mixed_ref=1 / me_range=16 / chroma_me=1 / trellis=1 / 8x8dct=1 / cqm=0 / deadzone=21,11 / fast_pskip=1 / chroma_qp_offset=-2 / threads=12 / lookahead_threads=2 / sliced_threads=0 / nr=0 / decimate=1 / interlaced=0 / bluray_compat=0 / constrained_intra=0 / bframes=3 / b_pyramid=2 / b_adapt=1 / b_bias=0 / direct=1 / weightb=1 / open_gop=0 / weightp=1 / keyint=120 / keyint_min=24 / scenecut=40 / intra_refresh=0 / rc_lookahead=30 / rc=abr / mbtree=1 / bitrate=28000 / ratetol=1.0 / qcomp=0.60 / qpmin=0 / qpmax=69 / qpstep=4 / vbv_maxrate=33600 / vbv_bufsize=67200 / nal_hrd=none / filler=0 / ip_ratio=1.40 / aq=1:1.00
Default : Yes
Forced : No
Color range : Limited
Color primaries : BT.709
Transfer characteristics : BT.709
Matrix coefficients : BT.709
Audio
ID : 2
Format : AAC LC
Format/Info : Advanced Audio Codec Low Complexity
Codec ID : A_AAC-2
Duration : 24mn 28s
Bit rate : 257 Kbps
Channel(s) : 2 channels
Channel layout : L R
Sampling rate : 48.0 KHz
Frame rate : 46.875 fps (1024 SPF)
Compression mode : Lossy
Delay relative to video : -80ms
Stream size : 45.0 MiB (1%)
Default : Yes
Forced : No

Скриншоты

Сравнение

Сравнение с этой раздачей: https://screenshotcomparison.com/comparison/6265
Доказательство того что это 4К.
--Релиз группа: Filmgrad.Ru ->
[filmgrad.ru].t150697.torrent 
Torrent: Registered [ 2020-09-12 04:26 ] · EB5E5A09CE73C6E54185DBEE7C068FCB948E5D32

Download .torrent

Download

2 MB

Status: checked
Completed: 0 times
Size: 92.05 GB
Оценка:  - (Голосов: 0)
Поблагодарили: 0  Спасибо
terms.php
[Profile] [PM]
Display posts:    
Reply to topic

Current time is: 30-Sep 21:06

All times are UTC + 3



You cannot post new topics in this forum
You cannot reply to topics in this forum
You cannot edit your posts in this forum
You cannot delete your posts in this forum
You cannot vote in polls in this forum
You cannot attach files in this forum
You can download files in this forum