Любовь на троих / Endings, Beginnings (2019) WEBRip [H.264/1080p-LQ]

Reply to topic
DL-List and Torrent activity
Size:  5.42 GB   |    Registered:  20 days   |    Completed:  0 times

Seeder not seen: Never

Leechers:  2  [  0 KB/s  ]   Show peers in full details
 
     
 
 
Author Message

dybrik13 ®

Gender: Male

Longevity: 1 year 8 months

Posts: 8033

Location: Киев

Post 10-Sep-2020 03:14

[Quote]

Любовь на троих / Endings, Beginnings- Производство: США, Корея Южная / CJ Entertainment, Protagonist Pictures
Жанр: Драма
Режиссер: Дрейк Доримус
Актеры: Шейлин Вудли, Джейми Дорнан, Себастьян Стэн, Мэттью Грей Гублер, Линдсей Слоун, Шамир Андерсон, Шерри Кола, Уэнди Мэлик, Кира Седжвик, Дженис ЛиЭнн Браун-Как выбрать? Первый – бунтарь и плохиш, непредсказуемый и рисковый Фрэнк, второй – чуткий и внимательный интеллектуал Джек. Два полюса, между которыми разрывается художница Дафна, словно проживая две разные версии своей жизни. Пришло время сделать выбор, но сможет ли она?
Дата мировой премьеры: 8 сентября 2019
Дата премьеры в России: 20 августа 2020

Продолжительность: 01:44:22
Качество видео: WEBRip
Перевод: Дублированный [чистый звук]
Субтитры: Отсутствуют
Видео: AVC/H.264, 1920x816, ~6905 Kbps
Аудио: AC3, 2 ch, 384 Kbps

MediaInfo:

Общее
Полное имя : D:\NNM\Любовь на троих\Endings.Beginnings.2020.WEBRip.1080p-LQ.mkv
Формат : Matroska
Версия формата : Version 2
Размер файла : 5,42 Гбайт
Продолжительность : 1 ч. 44 м.
Режим общего битрейта : Переменный
Общий поток : 7437 Кбит/сек
Программа кодирования : libmatroska 1.4.1
Библиотека кодирования : SolveigMM Matroska Muxer Version 1.0.1904.23
Видео
Идентификатор : 1
Формат : AVC
Формат/Информация : Advanced Video Codec
Профиль формата : High@L4.1
Настройки формата : CABAC / 4 Ref Frames
Параметр CABAC формата : Да
Параметр RefFrames формата : 4 кадра
Идентификатор кодека : V_MPEG4/ISO/AVC
Продолжительность : 1 ч. 44 м.
Вид битрейта : Переменный
Битрейт : 6905 Кбит/сек
Номинальный битрейт : 8000 Кбит/сек
Максимальный битрейт : 8000 Кбит/сек
Ширина : 1920 пикселей
Высота : 816 пикселей
Соотношение сторон : 2,35:1
Режим частоты кадров : Постоянный
Частота кадров : 23,976 (24000/1001) кадра/сек
Стандарт вещания : Component
Цветовое пространство : YUV
Субдискретизация насыщенности : 4:2:0
Битовая глубина : 8 бит
Тип развёртки : Прогрессивная
Бит/(Пиксели*Кадры) : 0.184
Размер потока : 5,03 Гбайт (93%)
Default : Нет
Forced : Нет
Цветовой диапазон : Limited
Основные цвета : BT.709
Характеристики трансфера : BT.709
Коэффициенты матрицы : BT.709
Аудио
Идентификатор : 2
Формат : AC-3
Формат/Информация : Audio Coding 3
Коммерческое название : Dolby Digital
Идентификатор кодека : A_AC3
Продолжительность : 1 ч. 44 м.
Вид битрейта : Постоянный
Битрейт : 384 Кбит/сек
Каналы : 2 канала
ChannelLayout : L R
Частота : 48,0 КГц
Частота кадров : 31,250 кадров/сек (1536 SPF)
Метод сжатия : С потерями
Размер потока : 287 Мбайт (5%)
Язык : Russian
ServiceKind/String : Complete Main
Default : Нет
Forced : Нет
Скриншоты: --Релиз группа: Filmgrad.Ru ->
[filmgrad.ru].t150674.torrent 
Torrent: Registered [ 2020-09-10 03:14 ] · F0FBDD81C7FF381F79FF1A83E49A042DA8A41772

Download .torrent

Download

28 KB

Status: checked
Completed: 0 times
Size: 5.42 GB
Оценка:  5 (Голосов: 1)
Поблагодарили: 0  Спасибо
terms.php
[Profile] [PM]
Display posts:    
Reply to topic

Current time is: 30-Sep 03:37

All times are UTC + 3



You cannot post new topics in this forum
You cannot reply to topics in this forum
You cannot edit your posts in this forum
You cannot delete your posts in this forum
You cannot vote in polls in this forum
You cannot attach files in this forum
You can download files in this forum