Любовь гарантирована / Love, Guaranteed (2020) WEBRip [H.264/1080p-LQ]

Reply to topic
DL-List and Torrent activity
Size:  3.19 GB   |    Registered:  19 days   |    Completed:  1 time

Seeder not seen: 4 hours

Leechers:  16  [  0 KB/s  ]   Show peers in full details
 
     
 
 
Author Message

dybrik13 ®

Gender: Male

Longevity: 1 year 8 months

Posts: 8033

Location: Киев

Post 10-Sep-2020 03:09

[Quote]

Любовь гарантирована / Love, Guaranteed- Производство: США / Netflix, Side Street Post
Жанр: Mелодрама, комедия
Режиссер: Марк Стивен Джонсон
Актеры: Рэйчел Ли Кук, Дэймон Уайанс мл., Кэйтлин Хауден, Брендан Тейлор, Себастьян Биллингсли-Родригес, Шон Эмсинг, Лиза Дурупт, Элвин Сандерс, Джед Риис, Кэндис МакКлюр-Адвокат Сьюзан привыкла не брать деньги за свои услуги. Но, чтобы спасти свою фирму от банкротства, она неохотно соглашается на высокооплачиваемую работу. Ей нужно помочь Нику, который судится с авторами сайта знакомств, обещавшими гарантированную любовь. Во время судебного процесса между Сьюзан и Ником завязываются отношения, которые могут всё разрушить.
Дата мировой премьеры: 3 сентября 2020
Продолжительность: 01:31:12
Качество видео: WEBRip
Перевод: Любительский двухголосый (OnisFilms)
Субтитры: Русские, английские
Видео: AVC/H.264, 1920x1080, ~4220 Kbps
Аудио #1: AC3, 2 ch, 192 Kbps - Русский
Аудио #2: AC3, 6 ch, 640 Kbps - Английский

MediaInfo:

Общее
Уникальный идентификатор : 322426555361851996805555786405737925021 (0xF291188547DB6CA573D490FC33F4099D)
Полное имя : D:\NNM\Любовь гарантирована\Love.Guaranteed.2020.WEBRip.1080p-LQ.mkv
Формат : Matroska
Версия формата : Version 4
Размер файла : 3,19 Гбайт
Продолжительность : 1 ч. 31 м.
Режим общего битрейта : Переменный
Общий поток : 5001 Кбит/сек
Название фильма : Любовь гарантирована / Love, Guaranteed (2020)
Дата кодирования : UTC 2020-09-09 08:53:18
Программа кодирования : mkvmerge v25.0.0 ('Prog Noir') 64-bit
Библиотека кодирования : libebml v1.3.6 + libmatroska v1.4.9
Видео
Идентификатор : 1
Формат : AVC
Формат/Информация : Advanced Video Codec
Профиль формата : Main@L4
Настройки формата : CABAC / 3 Ref Frames
Параметр CABAC формата : Да
Параметр RefFrames формата : 3 кадра
Идентификатор кодека : V_MPEG4/ISO/AVC
Продолжительность : 1 ч. 31 м.
Вид битрейта : Переменный
Битрейт : 4220 Кбит/сек
Максимальный битрейт : 6330 Кбит/сек
Ширина : 1920 пикселей
Высота : 1080 пикселей
Соотношение сторон : 16:9
Режим частоты кадров : Постоянный
Частота кадров : 24,000 кадра/сек
Цветовое пространство : YUV
Субдискретизация насыщенности : 4:2:0
Битовая глубина : 8 бит
Тип развёртки : Прогрессивная
Бит/(Пиксели*Кадры) : 0.085
Размер потока : 2,65 Гбайт (83%)
Библиотека кодирования : x264 core 148 r2722 1b0121b
Настройки программы : cabac=1 / ref=3 / deblock=1:0:0 / analyse=0x1:0x111 / me=umh / subme=10 / psy=1 / psy_rd=1.00:0.00 / mixed_ref=1 / me_range=24 / chroma_me=1 / trellis=2 / 8x8dct=0 / cqm=0 / deadzone=21,11 / fast_pskip=1 / chroma_qp_offset=-2 / threads=8 / lookahead_threads=1 / sliced_threads=0 / nr=0 / decimate=1 / interlaced=0 / bluray_compat=0 / stitchable=1 / constrained_intra=0 / bframes=2 / b_pyramid=0 / b_adapt=2 / b_bias=0 / direct=3 / weightb=1 / open_gop=0 / weightp=2 / keyint=250 / keyint_min=24 / scenecut=0 / intra_refresh=0 / rc_lookahead=48 / rc=2pass / mbtree=1 / bitrate=4220 / ratetol=1.0 / qcomp=0.50 / qpmin=6 / qpmax=51 / qpstep=4 / cplxblur=20.0 / qblur=0.5 / vbv_maxrate=6330 / vbv_bufsize=8440 / nal_hrd=vbr / filler=0 / ip_ratio=1.40 / aq=1:1.00
Язык : English
Default : Да
Forced : Нет
Аудио #1
Идентификатор : 2
Формат : AC-3
Формат/Информация : Audio Coding 3
Коммерческое название : Dolby Digital
Идентификатор кодека : A_AC3
Продолжительность : 1 ч. 31 м.
Вид битрейта : Постоянный
Битрейт : 192 Кбит/сек
Каналы : 2 канала
ChannelLayout : L R
Частота : 48,0 КГц
Частота кадров : 31,250 кадров/сек (1536 SPF)
Метод сжатия : С потерями
Размер потока : 125 Мбайт (4%)
Заголовок : DVO | OnisFilms
Язык : Russian
ServiceKind/String : Complete Main
Default : Да
Forced : Нет
Аудио #2
Идентификатор : 3
Формат : AC-3
Формат/Информация : Audio Coding 3
Коммерческое название : Dolby Digital
Идентификатор кодека : A_AC3
Продолжительность : 1 ч. 31 м.
Вид битрейта : Постоянный
Битрейт : 640 Кбит/сек
Каналы : 6 каналов
ChannelLayout : L R C LFE Ls Rs
Частота : 48,0 КГц
Частота кадров : 31,250 кадров/сек (1536 SPF)
Метод сжатия : С потерями
Размер потока : 418 Мбайт (13%)
Заголовок : Original
Язык : English
ServiceKind/String : Complete Main
Default : Нет
Forced : Нет
Текст #1
Идентификатор : 4
Формат : UTF-8
Идентификатор кодека : S_TEXT/UTF8
Идентификатор кодека/Информация : UTF-8 Plain Text
Продолжительность : 1 ч. 29 м.
Битрейт : 112 бит/сек
ElementCount : 1359
Размер потока : 74,0 Кбайт (0%)
Заголовок : Russian
Язык : Russian
Default : Нет
Forced : Нет
Текст #2
Идентификатор : 5
Формат : UTF-8
Идентификатор кодека : S_TEXT/UTF8
Идентификатор кодека/Информация : UTF-8 Plain Text
Продолжительность : 1 ч. 29 м.
Битрейт : 107 бит/сек
ElementCount : 1635
Размер потока : 70,9 Кбайт (0%)
Заголовок : English
Язык : English
Default : Нет
Forced : Нет
Скриншоты: --Релиз группа: Filmgrad.Ru ->
[filmgrad.ru].t150672.torrent 
Torrent: Registered [ 2020-09-10 03:09 ] · EAD9C021BC289AFDE27452625F8E84EE6F8C4952

Download .torrent

Download

17 KB

Status: checked
Completed: 1 times
Size: 3.19 GB
Оценка:  5 (Голосов: 1)
Поблагодарили: 0  Спасибо
terms.php
[Profile] [PM]
Display posts:    
Reply to topic

Current time is: 30-Sep 00:04

All times are UTC + 3



You cannot post new topics in this forum
You cannot reply to topics in this forum
You cannot edit your posts in this forum
You cannot delete your posts in this forum
You cannot vote in polls in this forum
You cannot attach files in this forum
You can download files in this forum