Всё ещё здесь / Still Here (2020) WEB-DL [H.264/1080p-LQ]

Reply to topic
DL-List and Torrent activity
Size:  4.97 GB   |    Registered:  19 days   |    Completed:  0 times

Seeder not seen: Never

Leechers:  9  [  0 KB/s  ]   Show peers in full details
 
     
 
 
Author Message

dybrik13 ®

Gender: Male

Longevity: 1 year 8 months

Posts: 8030

Location: Киев

Post 10-Sep-2020 03:06

[Quote]

Всё ещё здесь / Still Here- Производство: США / Atelier 44
Жанр: Триллер, драма, криминал
Режиссер: Влад Фейер
Актеры: Джонни Витуорт, Зази Битц, Эфтон Уильямсон, Морис МакРей, Ларри Пайн, Джереми С. Холм, Джиа Кроватин, Дэнни Джонсон, Джастин А. Дэвис, Руперт Саймониан-Журналист из Нью-Йорка, которому поручают историю пропавшей молодой афроамериканской девушки, рискует своей карьерой и берет дело в свои руки, пытаясь ее найти.
Дата мировой премьеры: 27 августа 2020
Продолжительность: 01:37:07
Качество видео: WEB-DL
Перевод: Многоголосый закадровый, любительский (MUZOBOZ)
Субтитры: Английские
Видео: AVC/H.264, 1920x1080, ~6756 Kbps
Аудио #1: AC3, 2 ch, 192 Kbps - Русский
Аудио #2: AC3, 6 ch, 384 Kbps - Английский

MediaInfo:

Общее
Уникальный идентификатор : 8254499095304017993301014037542226691 (0x635C23A0E33FD88FF4AA07C37A04B03)
Полное имя : D:\NNM\Всё ещё здесь\Still.Here.2020.WEB-DL.1080p-LQ.mkv
Формат : Matroska
Версия формата : Version 4
Размер файла : 4,97 Гбайт
Продолжительность : 1 ч. 37 м.
Общий поток : 7329 Кбит/сек
Название фильма : Всё ещё здесь / Still Here (2020)
Дата кодирования : UTC 2020-09-09 14:24:49
Программа кодирования : mkvmerge v25.0.0 ('Prog Noir') 64-bit
Библиотека кодирования : libebml v1.3.6 + libmatroska v1.4.9
Видео
Идентификатор : 1
Формат : AVC
Формат/Информация : Advanced Video Codec
Профиль формата : High@L4
Настройки формата : CABAC / 2 Ref Frames
Параметр CABAC формата : Да
Параметр RefFrames формата : 2 кадра
Идентификатор кодека : V_MPEG4/ISO/AVC
Продолжительность : 1 ч. 37 м.
Битрейт : 6756 Кбит/сек
Ширина : 1920 пикселей
Высота : 1080 пикселей
Соотношение сторон : 16:9
Режим частоты кадров : Постоянный
Частота кадров : 23,976 (24000/1001) кадра/сек
Цветовое пространство : YUV
Субдискретизация насыщенности : 4:2:0
Битовая глубина : 8 бит
Тип развёртки : Прогрессивная
Бит/(Пиксели*Кадры) : 0.136
Размер потока : 4,58 Гбайт (92%)
Заголовок : CM
Библиотека кодирования : x264 core 155 r2901 7d0ff22
Язык : English
Default : Да
Forced : Нет
Цветовой диапазон : Limited
Основные цвета : BT.709
Характеристики трансфера : BT.709
Коэффициенты матрицы : BT.709
Аудио #1
Идентификатор : 2
Формат : AC-3
Формат/Информация : Audio Coding 3
Коммерческое название : Dolby Digital
Идентификатор кодека : A_AC3
Продолжительность : 1 ч. 37 м.
Вид битрейта : Постоянный
Битрейт : 192 Кбит/сек
Каналы : 2 канала
ChannelLayout : L R
Частота : 48,0 КГц
Частота кадров : 31,250 кадров/сек (1536 SPF)
Метод сжатия : С потерями
Размер потока : 133 Мбайт (3%)
Заголовок : MVO [@MUZOBOZ@] MediaBit
Язык : Russian
ServiceKind/String : Complete Main
Default : Да
Forced : Нет
Аудио #2
Идентификатор : 3
Формат : AC-3
Формат/Информация : Audio Coding 3
Коммерческое название : Dolby Digital
Идентификатор кодека : A_AC3
Продолжительность : 1 ч. 37 м.
Вид битрейта : Постоянный
Битрейт : 384 Кбит/сек
Каналы : 6 каналов
ChannelLayout : L R C LFE Ls Rs
Частота : 48,0 КГц
Частота кадров : 31,250 кадров/сек (1536 SPF)
Метод сжатия : С потерями
Размер потока : 267 Мбайт (5%)
Язык : English
ServiceKind/String : Complete Main
Default : Нет
Forced : Нет
Текст
Идентификатор : 4
Формат : UTF-8
Идентификатор кодека : S_TEXT/UTF8
Идентификатор кодека/Информация : UTF-8 Plain Text
Продолжительность : 1 ч. 30 м.
Битрейт : 61 бит/сек
ElementCount : 1432
Размер потока : 40,6 Кбайт (0%)
Язык : English
Default : Нет
Forced : Нет
Скриншоты: --Релиз группа: Filmgrad.Ru ->
[filmgrad.ru].t150671.torrent 
Torrent: Registered [ 2020-09-10 03:06 ] · 0B9AAD2DDAF8F981D282CF502B5A938FDC81427F

Download .torrent

Download

26 KB

Status: checked
Completed: 0 times
Size: 4.97 GB
Оценка:  5 (Голосов: 1)
Поблагодарили: 0  Спасибо
terms.php
[Profile] [PM]
Display posts:    
Reply to topic

Current time is: 29-Sep 12:53

All times are UTC + 3



You cannot post new topics in this forum
You cannot reply to topics in this forum
You cannot edit your posts in this forum
You cannot delete your posts in this forum
You cannot vote in polls in this forum
You cannot attach files in this forum
You can download files in this forum