Мой создатель / Archive (Гэвин Ротери) [2020, Фантастика, Драма, WEB-DL 1080p] [DUB,MVO] [ iTunes, HDRezka Studio]

Reply to topic
DL-List and Torrent activity
Size:  8.14 GB   |    Registered:  20 days   |    Completed:  1 time
Seeders:  33  [  0 KB/s  ]   Leechers:  28  [  0 KB/s  ]   Show peers in full details
 
     
 
 
Author Message

ZUBDOLGOPA ®

Gender: Male

Longevity: 9 months 15 days

Posts: 624

Location: Долгопрудный

Post 09-Sep-2020 23:02

[Quote]

Информация о фильме
Название: Мой создатель
Оригинальное название: Archive
Год выхода: 2020
Жанр: фантастика
Режиссер: Гэвин Ротери--В ролях: Тео Джеймс, Рона Митра, Тоби Джонс, Стэйси Мартин, Питер Фердинандо, Ричард Гловер, Ханс Петерсон, Джереми Вилер, Timea Maday Kinga--О фильме: 2046-ой год. Время невероятных технологических открытий, могущественных корпораций и торжества искусственного интеллекта. Молодой ученый в секретной лаборатории занимается поиском вечной жизни для сильных мира сего. Но его истинная цель другая. Он пытается воскресить свою единственную любовь, погибшую несколько лет назад. Когда объект перестает выходить на связь, корпорация отправляет туда команду зачистки.--Выпущено: Великобритания, Венгрия, США / Head Gear Films, Hero Squared, Independent
Продолжительность: 01:49:17
Озвучивание # 1: Дублированное iTunes
Озвучивание # 2: Профессиональное (многоголосое) HDRezka Studio--Файл
Формат: MKV
Качество: WEB-DL 1080p | AMAZON Version
Видео: MPEG-4 AVC, 9184 Kb/s, 1920x1080
Аудио #1: Russian: 48 kHz, AC3 Dolby Digital, 3/2 (L, C, R, l, r) + LFE ch, ~384 Kbps | DUB | iTunes
Аудио #2: Russian: 48 kHz, AC3 Dolby Digital, 3/2 (L, C, R, l, r) + LFE ch, ~448 Kbps | MVO | HDRezka Studio
Аудио #3: English: 48 kHz, Enhanced AC3 Dolby Digital, 3/2 (L, C, R, l, r) + LFE ch, ~640 Kbps | Original
Субтитры: Russian (Forced), English (Full, SDH)
Дополнительно: Нет--Релиз группы: --

Тех.данные видеофайла

Complete name: Archive.2020.1080p.AMZN.WEB-DL.ELEKTRI4KA.UNIONGANG.mkv
Format: Matroska
Format version: Version 4 / Version 2
File size: 8.14 GiB
Duration: 1 h 49 min
Overall bit rate: 10.7 Mb/s
Movie name: .ELEKTRI4KA.UNIONGANG.
Encoded date: UTC 2020-09-09 19:00:36
Writing application: mkvmerge v8.3.0 ('Over the Horizon') 64bit
Writing library: libebml v1.3.1 + libmatroska v1.4.2
Video
ID: 1
Format: AVC
Format/Info: Advanced Video Codec
Format profile: High@L4
Format settings, CABAC: Yes
Format settings, Reference frames: 4 frames
Codec ID: V_MPEG4/ISO/AVC
Duration: 1 h 49 min
Bit rate mode: Constant
Bit rate: 9 184 kb/s
Nominal bit rate: 10 000 kb/s
Width: 1 920 pixels
Height: 1 080 pixels
Display aspect ratio: 16:9
Frame rate mode: Constant
Frame rate: 23.976 (24000/1001) FPS
Color space: YUV
Chroma subsampling: 4:2:0
Bit depth: 8 bits
Scan type: Progressive
Bits/(Pixel*Frame): 0.185
Stream size: 7.01 GiB (86%)
Title: .ELEKTRI4KA.UNIONGANG.
Language: English
Default: Yes
Forced: No
Color range: Limited
Color primaries: BT.709
Transfer characteristics: BT.709
Matrix coefficients: BT.709
Audio #1
ID: 2
Format: AC-3
Format/Info: Audio Coding 3
Mode extension: CM (complete main)
Format settings, Endianness: Big
Codec ID: A_AC3
Duration: 1 h 49 min
Bit rate mode: Constant
Bit rate: 384 kb/s
Channel(s): 6 channels
Channel positions: Front: L C R, Side: L R, LFE
Sampling rate: 48.0 kHz
Frame rate: 31.250 FPS (1536 spf)
Bit depth: 16 bits
Compression mode: Lossy
Stream size: 300 MiB (4%)
Title: iTunes
Language: Russian
Default: Yes
Forced: Yes
Audio #2
ID: 3
Format: AC-3
Format/Info: Audio Coding 3
Mode extension: CM (complete main)
Format settings, Endianness: Big
Codec ID: A_AC3
Duration: 1 h 49 min
Bit rate mode: Constant
Bit rate: 448 kb/s
Channel(s): 6 channels
Channel positions: Front: L C R, Side: L R, LFE
Sampling rate: 48.0 kHz
Frame rate: 31.250 FPS (1536 spf)
Bit depth: 16 bits
Compression mode: Lossy
Stream size: 350 MiB (4%)
Title: HDRezka Studio
Language: Russian
Default: No
Forced: No
Audio #3
ID: 4
Format: E-AC-3
Format/Info: Enhanced Audio Coding 3
Format settings, Endianness: Big
Codec ID: A_EAC3
Duration: 1 h 49 min
Bit rate mode: Constant
Bit rate: 640 kb/s
Channel(s): 6 channels
Channel positions: Front: L C R, Side: L R, LFE
Sampling rate: 48.0 kHz
Frame rate: 187.500 FPS (256 spf)
Compression mode: Lossy
Stream size: 500 MiB (6%)
Title: Original
Language: English
Default: No
Forced: No
Text #1
ID: 5
Format: UTF-8
Codec ID: S_TEXT/UTF8
Codec ID/Info: UTF-8 Plain Text
Duration: 1 h 41 min
Bit rate: 3 b/s
Count of elements: 81
Stream size: 2.65 KiB (0%)
Title: FORCED
Language: Russian
Default: Yes
Forced: No
Text #2
ID: 6
Format: UTF-8
Codec ID: S_TEXT/UTF8
Codec ID/Info: UTF-8 Plain Text
Duration: 1 h 41 min
Bit rate: 42 b/s
Count of elements: 1068
Stream size: 31.4 KiB (0%)
Language: English
Default: No
Forced: No
Text #3
ID: 7
Format: UTF-8
Codec ID: S_TEXT/UTF8
Codec ID/Info: UTF-8 Plain Text
Duration: 1 h 41 min
Bit rate: 45 b/s
Count of elements: 1184
Stream size: 34.0 KiB (0%)
Title: SDH
Language: English
Default: No
Forced: No

Скриншоты

[filmgrad.ru].t150669.torrent 
 SILVER TORRENT! DOWNLOAD TRAFFIC PARTIALLY CONSIDERED! 
Torrent: Registered [ 2020-09-09 23:02 ] · 279F38139A1CF551C3803BF58996DFECCEC6169E

Download .torrent

Download

21 KB

Status: checked
Completed: 1 times
Size: 8.14 GB
Оценка:  - (Голосов: 0)
Поблагодарили: 0  Спасибо
terms.php
[Profile] [PM]
Display posts:    
Reply to topic

Current time is: 30-Sep 02:00

All times are UTC + 3



You cannot post new topics in this forum
You cannot reply to topics in this forum
You cannot edit your posts in this forum
You cannot delete your posts in this forum
You cannot vote in polls in this forum
You cannot attach files in this forum
You can download files in this forum