Мулан / Mulan (Ники Каро) [2020 г., Боевик, фэнтези, драма, WEB-DL 1080p] MVO (HDRezka Studio) (FocusX) (IdeaFilm)

Reply to topic
DL-List and Torrent activity
Size:  19.57 GB   |    Registered:  19 days   |    Completed:  2 times
Seeders:  129  [  0 KB/s  ]   Leechers:  109  [  0 KB/s  ]   Show peers in full details
 
     
 
 
Author Message

kneht ®

Gender: Male

Longevity: 1 year 1 month

Posts: 802

Location: СССР

Post 09-Sep-2020 21:23

[Quote]

--Мулан / Mulan-- Год выхода: 2020
Страна: США, Китай, Канада
Жанр: Боевик, фэнтези, драма
Продолжительность: 01:55:08
Перевод 1: Профессиональный (многоголосый закадровый) | HDRezka Studio
Перевод 2: Профессиональный (многоголосый закадровый) | FocusX
Перевод 3: Профессиональный (многоголосый закадровый) | IdeaFilm
Субтитры: Русские, украинские, английские, испанские, французские, немецкие, итальянские, португальские-Режиссер: Ники Каро-В ролях: Лю Ифэй, Донни Йен, Гун Ли, Джет Ли, Джейсон Скотт Ли, Йосон Ань, Ма Ци, Розалинд Чао, Чжэн Пэйпэй, Сюзанна Тан-О фильме: Изданный императором Китая указ о призыве на службу в армии одного мужчины из каждой семьи для защиты страны от северных захватчиков вдохновляет Мулан, старшую дочь почетного воина, занять в войсках место больного отца. Маскируясь под мужчину, девушка подвергается испытаниям на каждом шагу, проявляя свои внутреннюю силу и истинный потенциал. Мулан ждет эпичное путешествие, которое превратит её в доблестного воина, позволит заслужить уважение народа и стать гордостью отца.- -Качество: WEB-DL 1080p
Формат: MKV
Видео кодек: x.264
Аудио кодек: AC3, DTS-HD
Видео: AVC, 1920x1080 (16:9), 23.976 fps, 18.4 Mb/s (0.370 bit/pixel)
Аудио 1: AC-3, 48.0 kHz, 6 ch, 640 kb/s | RUS [HDRezka Studio]
Аудио 2: AC-3, 48.0 kHz, 6 ch, 384 kb/s | RUS [FocusX]
Аудио 3: AC-3, 48.0 kHz, 6 ch, 448 kb/s | RUS [IdeaFilm]
Аудио 4: AC-3, 48.0 kHz, 2 ch, 192 kb/s | UKR
Аудио 5: AC-3, 48.0 kHz, 6 ch, 640 kb/s | ENG
Аудио 6: DTS-HD MA, 48.0 kHz, 6 ch, 3 607 kb/s | ENG
-

MediaInfo

[size=13]Общее
Уникальный идентификатор                 : 227157312936808022965789948313544264288 (0xAAE4E8382CA8A88ABA8C9A89D16D8A60)
Полное имя                               : Mulan.(2020).P.WEB-DL.1080p.mkv
Формат                                   : Matroska
Версия формата                           : Version 4
Размер файла                             : 19,6 Гбайт
Продолжительность                        : 1 ч. 55 м.
Режим общего битрейта                    : Переменный
Общий поток                              : 24,3 Мбит/сек
Дата кодирования                         : UTC 2020-09-09 11:29:36
Программа кодирования                    : mkvmerge v8.3.0 ('Over the Horizon') 64bit
Библиотека кодирования                   : libebml v1.3.1 + libmatroska v1.4.2
Видео
Идентификатор                            : 1
Формат                                   : AVC
Формат/Информация                        : Advanced Video Codec
Профиль формата                          : High@L4.1
Настройки формата                        : CABAC / 4 Ref Frames
Параметр CABAC формата                   : Да
Параметр RefFrames формата               : 4 кадра
Идентификатор кодека                     : V_MPEG4/ISO/AVC
Продолжительность                        : 1 ч. 55 м.
Вид битрейта                             : Переменный
Битрейт                                  : 18,4 Мбит/сек
Максимальный битрейт                     : 64,0 Мбит/сек
Ширина                                   : 1920 пикселей
Высота                                   : 1080 пикселей
Соотношение сторон                       : 16:9
Режим частоты кадров                     : Постоянный
Частота кадров                           : 23,976 (24000/1001) кадра/сек
Цветовое пространство                    : YUV
Субдискретизация насыщенности            : 4:2:0
Битовая глубина                          : 8 бит
Тип развёртки                            : Прогрессивная
Бит/(Пиксели*Кадры)                      : 0.370
Размер потока                            : 14,8 Гбайт (76%)
Язык                                     : English
Default                                  : Да
Forced                                   : Нет
Цветовой диапазон                        : Limited
Основные цвета                           : BT.709
Характеристики трансфера                 : BT.709
Коэффициенты матрицы                     : BT.709
Аудио #1
Идентификатор                            : 2
Формат                                   : AC-3
Формат/Информация                        : Audio Coding 3
Коммерческое название                    : Dolby Digital
Идентификатор кодека                     : A_AC3
Продолжительность                        : 1 ч. 55 м.
Вид битрейта                             : Постоянный
Битрейт                                  : 640 Кбит/сек
Каналы                                   : 6 каналов
Channel layout                           : L R C LFE Ls Rs
Частота                                  : 48,0 КГц
Частота кадров                           : 31,250 кадров/сек (1536 SPF)
Битовая глубина                          : 16 бит
Метод сжатия                             : С потерями
Размер потока                            : 527 Мбайт (3%)
Заголовок                                : MVO | HDRezka Studio
Язык                                     : Russian
ServiceKind/String                       : Complete Main
Default                                  : Да
Forced                                   : Нет
Аудио #2
Идентификатор                            : 3
Формат                                   : AC-3
Формат/Информация                        : Audio Coding 3
Коммерческое название                    : Dolby Digital
Идентификатор кодека                     : A_AC3
Продолжительность                        : 1 ч. 55 м.
Вид битрейта                             : Постоянный
Битрейт                                  : 384 Кбит/сек
Каналы                                   : 6 каналов
Channel layout                           : L R C LFE Ls Rs
Частота                                  : 48,0 КГц
Частота кадров                           : 31,250 кадров/сек (1536 SPF)
Битовая глубина                          : 16 бит
Метод сжатия                             : С потерями
Размер потока                            : 316 Мбайт (2%)
Заголовок                                : MVO | FocusX
Язык                                     : Russian
ServiceKind/String                       : Complete Main
Default                                  : Нет
Forced                                   : Нет
Аудио #3
Идентификатор                            : 4
Формат                                   : AC-3
Формат/Информация                        : Audio Coding 3
Коммерческое название                    : Dolby Digital
Идентификатор кодека                     : A_AC3
Продолжительность                        : 1 ч. 55 м.
Вид битрейта                             : Постоянный
Битрейт                                  : 448 Кбит/сек
Каналы                                   : 6 каналов
Channel layout                           : L R C LFE Ls Rs
Частота                                  : 48,0 КГц
Частота кадров                           : 31,250 кадров/сек (1536 SPF)
Битовая глубина                          : 16 бит
Метод сжатия                             : С потерями
Размер потока                            : 369 Мбайт (2%)
Заголовок                                : MVO | IdeaFilm
Язык                                     : Russian
ServiceKind/String                       : Complete Main
Default                                  : Нет
Forced                                   : Нет
Аудио #4
Идентификатор                            : 5
Формат                                   : AC-3
Формат/Информация                        : Audio Coding 3
Коммерческое название                    : Dolby Digital
Идентификатор кодека                     : A_AC3
Продолжительность                        : 1 ч. 55 м.
Вид битрейта                             : Постоянный
Битрейт                                  : 192 Кбит/сек
Каналы                                   : 2 канала
Channel layout                           : L R
Частота                                  : 48,0 КГц
Частота кадров                           : 31,250 кадров/сек (1536 SPF)
Битовая глубина                          : 16 бит
Метод сжатия                             : С потерями
Размер потока                            : 158 Мбайт (1%)
Заголовок                                : P1 | В одне рило
Язык                                     : Ukrainian
ServiceKind/String                       : Complete Main
Default                                  : Нет
Forced                                   : Нет
Аудио #5
Идентификатор                            : 6
Формат                                   : AC-3
Формат/Информация                        : Audio Coding 3
Коммерческое название                    : Dolby Digital
Идентификатор кодека                     : A_AC3
Продолжительность                        : 1 ч. 55 м.
Вид битрейта                             : Постоянный
Битрейт                                  : 640 Кбит/сек
Каналы                                   : 6 каналов
Channel layout                           : L R C LFE Ls Rs
Частота                                  : 48,0 КГц
Частота кадров                           : 31,250 кадров/сек (1536 SPF)
Битовая глубина                          : 16 бит
Метод сжатия                             : С потерями
Размер потока                            : 527 Мбайт (3%)
Язык                                     : English
ServiceKind/String                       : Complete Main
Default                                  : Нет
Forced                                   : Нет
Аудио #6
Идентификатор                            : 7
Формат                                   : DTS XLL
Формат/Информация                        : Digital Theater Systems
Коммерческое название                    : DTS-HD Master Audio
Идентификатор кодека                     : A_DTS
Продолжительность                        : 1 ч. 55 м.
Вид битрейта                             : Переменный
Битрейт                                  : 3607 Кбит/сек
Каналы                                   : 6 каналов
Channel layout                           : C L R Ls Rs LFE
Частота                                  : 48,0 КГц
Частота кадров                           : 93,750 кадра/сек (512 SPF)
Битовая глубина                          : 24 бит
Метод сжатия                             : Без потерь
Размер потока                            : 2,90 Гбайт (15%)
Язык                                     : English
Default                                  : Нет
Forced                                   : Нет
Текст #1
Идентификатор                            : 8
Формат                                   : UTF-8
Идентификатор кодека                     : S_TEXT/UTF8
Идентификатор кодека/Информация          : UTF-8 Plain Text
Продолжительность                        : 1 ч. 37 м.
Битрейт                                  : 0 бит/сек
ElementCount                             : 9
Размер потока                            : 420 байт (0%)
Заголовок                                : Forced
Язык                                     : Russian
Default                                  : Да
Forced                                   : Нет
Текст #2
Идентификатор                            : 9
Формат                                   : UTF-8
Идентификатор кодека                     : S_TEXT/UTF8
Идентификатор кодека/Информация          : UTF-8 Plain Text
Продолжительность                        : 1 ч. 44 м.
Битрейт                                  : 50 бит/сек
ElementCount                             : 850
Размер потока                            : 38,8 Кбайт (0%)
Заголовок                                : Full (FOCS)
Язык                                     : Russian
Default                                  : Нет
Forced                                   : Нет
Текст #3
Идентификатор                            : 10
Формат                                   : UTF-8
Идентификатор кодека                     : S_TEXT/UTF8
Идентификатор кодека/Информация          : UTF-8 Plain Text
Продолжительность                        : 1 ч. 43 м.
Битрейт                                  : 50 бит/сек
ElementCount                             : 848
Размер потока                            : 38,2 Кбайт (0%)
Заголовок                                : Full
Язык                                     : Ukrainian
Default                                  : Нет
Forced                                   : Нет
Текст #4
Идентификатор                            : 11
Формат                                   : UTF-8
Идентификатор кодека                     : S_TEXT/UTF8
Идентификатор кодека/Информация          : UTF-8 Plain Text
Продолжительность                        : 1 ч. 50 м.
Битрейт                                  : 35 бит/сек
ElementCount                             : 1150
Размер потока                            : 28,5 Кбайт (0%)
Заголовок                                : English
Язык                                     : English
Default                                  : Нет
Forced                                   : Нет
Текст #5
Идентификатор                            : 12
Формат                                   : UTF-8
Идентификатор кодека                     : S_TEXT/UTF8
Идентификатор кодека/Информация          : UTF-8 Plain Text
Продолжительность                        : 3 м. 7 с.
Битрейт                                  : 2 бит/сек
ElementCount                             : 2
Размер потока                            : 53,0 байт (0%)
Заголовок                                : German
Язык                                     : German
Default                                  : Нет
Forced                                   : Нет
Текст #6
Идентификатор                            : 13
Формат                                   : UTF-8
Идентификатор кодека                     : S_TEXT/UTF8
Идентификатор кодека/Информация          : UTF-8 Plain Text
Продолжительность                        : 1 ч. 54 м.
Битрейт                                  : 27 бит/сек
ElementCount                             : 933
Размер потока                            : 22,7 Кбайт (0%)
Заголовок                                : German
Язык                                     : German
Default                                  : Нет
Forced                                   : Нет
Текст #7
Идентификатор                            : 14
Формат                                   : UTF-8
Идентификатор кодека                     : S_TEXT/UTF8
Идентификатор кодека/Информация          : UTF-8 Plain Text
Продолжительность                        : 1 ч. 40 м.
Битрейт                                  : 0 бит/сек
ElementCount                             : 21
Размер потока                            : 380 байт (0%)
Заголовок                                : French
Язык                                     : French
Default                                  : Нет
Forced                                   : Нет
Текст #8
Идентификатор                            : 15
Формат                                   : UTF-8
Идентификатор кодека                     : S_TEXT/UTF8
Идентификатор кодека/Информация          : UTF-8 Plain Text
Продолжительность                        : 1 ч. 54 м.
Битрейт                                  : 29 бит/сек
ElementCount                             : 806
Размер потока                            : 24,5 Кбайт (0%)
Заголовок                                : French
Язык                                     : French
Default                                  : Нет
Forced                                   : Нет
Текст #9
Идентификатор                            : 16
Формат                                   : UTF-8
Идентификатор кодека                     : S_TEXT/UTF8
Идентификатор кодека/Информация          : UTF-8 Plain Text
Продолжительность                        : 3 м. 21 с.
Битрейт                                  : 2 бит/сек
ElementCount                             : 3
Размер потока                            : 73,0 байт (0%)
Заголовок                                : Spanish
Язык                                     : Spanish
Default                                  : Нет
Forced                                   : Нет
Текст #10
Идентификатор                            : 17
Формат                                   : UTF-8
Идентификатор кодека                     : S_TEXT/UTF8
Идентификатор кодека/Информация          : UTF-8 Plain Text
Продолжительность                        : 1 ч. 43 м.
Битрейт                                  : 30 бит/сек
ElementCount                             : 783
Размер потока                            : 23,6 Кбайт (0%)
Заголовок                                : Spanish
Язык                                     : Spanish
Default                                  : Нет
Forced                                   : Нет
Текст #11
Идентификатор                            : 18
Формат                                   : UTF-8
Идентификатор кодека                     : S_TEXT/UTF8
Идентификатор кодека/Информация          : UTF-8 Plain Text
Продолжительность                        : 3 м. 8 с.
Битрейт                                  : 2 бит/сек
ElementCount                             : 2
Размер потока                            : 67,0 байт (0%)
Заголовок                                : Italian
Язык                                     : Italian
Default                                  : Нет
Forced                                   : Нет
Текст #12
Идентификатор                            : 19
Формат                                   : UTF-8
Идентификатор кодека                     : S_TEXT/UTF8
Идентификатор кодека/Информация          : UTF-8 Plain Text
Продолжительность                        : 1 ч. 54 м.
Битрейт                                  : 27 бит/сек
ElementCount                             : 784
Размер потока                            : 23,0 Кбайт (0%)
Заголовок                                : Italian
Язык                                     : Italian
Default                                  : Нет
Forced                                   : Нет
Текст #13
Идентификатор                            : 20
Формат                                   : UTF-8
Идентификатор кодека                     : S_TEXT/UTF8
Идентификатор кодека/Информация          : UTF-8 Plain Text
Продолжительность                        : 1 ч. 54 м.
Битрейт                                  : 27 бит/сек
ElementCount                             : 784
Размер потока                            : 22,7 Кбайт (0%)
Заголовок                                : Portuguese
Язык                                     : Portuguese
Default                                  : Нет
Forced                                   : Нет
Текст #14
Идентификатор                            : 21
Формат                                   : UTF-8
Идентификатор кодека                     : S_TEXT/UTF8
Идентификатор кодека/Информация          : UTF-8 Plain Text
Продолжительность                        : 3 м. 8 с.
Битрейт                                  : 2 бит/сек
ElementCount                             : 2
Размер потока                            : 61,0 байт (0%)
Заголовок                                : Portuguese
Язык                                     : Portuguese
Default                                  : Нет
Forced                                   : Нет[/size]
-

Скриншоты:

- -Релиз группа: Filmgrad.Ru ->
[filmgrad.ru].t150668.torrent 
 GOLD TORRENT! DOWNLOAD TRAFFIC DOES NOT CONSIDER! 
Torrent: Registered [ 2020-09-09 21:23 ] · 03AAB0D09DC7DD8F9359E019048D5AD4B943A957

Download .torrent

Download

196 KB

Status: checked
Completed: 2 times
Size: 19.57 GB
Оценка:  5 (Голосов: 1)
Поблагодарили: 0  Спасибо
terms.php
[Profile] [PM]
Display posts:    
Reply to topic

Current time is: 29-Sep 14:05

All times are UTC + 3



You cannot post new topics in this forum
You cannot reply to topics in this forum
You cannot edit your posts in this forum
You cannot delete your posts in this forum
You cannot vote in polls in this forum
You cannot attach files in this forum
You can download files in this forum