Явление / Fatima (2020) WEB-DL 1080p | L

Reply to topic
DL-List and Torrent activity
Size:  4.79 GB   |    Registered:  20 days   |    Completed:  0 times
Seeders:  24  [  0 KB/s  ]   Leechers:  3  [  0 KB/s  ]   Show peers in full details
 
     
 
 
Author Message

dybrik13 ®

Gender: Male

Longevity: 1 year 8 months

Posts: 8038

Location: Киев

Post 09-Sep-2020 13:53

[Quote]

Явление / Fatima- Оригинальное название: Fatima
Год выхода: 2020
Жанр: Драма
Режиссер: Марко Понтекорво
В ролях: Альба Баптиста, Харви Кейтель, Жоаким ди Алмейда, Горан Вишнич, Соня Брага, Жуана Рибейру, Лусия Монис, Эстефания Джил, Ана Морейра, Жоана Паис де Брито-Фильм основан на реальной истории. Действие разворачивается в португальском городе Фатима, где трое детей сообщают родителям, что видели образ Девы Марии, спустившейся с небес. Поначалу никто им не верит, но весть об этом разносится по всей стране, что становится толчком для масштабного паломничества в Фатиму.
Страна: Португалия, США
Студия: Origin Entertainment, Rose Pictures, Panorama Films
Продолжительность: 01:53:19
Перевод: Любительский многоголосый | @MUZOBOZ@
Кодек: MPEG-4 AVC
Качество: WEB-DL 1080p
Видео: 5478 Кбит/с, 1920x1080, 23.976 кадр/с
Звук:
Аудио #1: AC3, 48 Гц, 192 Кбит/сек, 2 ch (L + R) | MVO | @MUZOBOZ@
Аудио #2: AC3, 48 Гц, 384 Кбит/сек, 6 ch (L C R, + L R, LFE) | Английский
Субтитры: Английские

MI

Общее
Уникальный идентификатор : 76054523274853807875634678232627239223 (0x393791813A6212BBDFFAA6B1DC975937)
Полное имя : D:Торренты.2020.x264.WEB-DL(1080p)-MediaBit.mkv
Формат : Matroska
Версия формата : Version 4
Размер файла : 4,79 Гбайт
Продолжительность : 1 ч. 53 м.
Общий поток : 6 057 Кбит/сек
Название фильма : Явление / Fatima (2020)
Дата кодирования : UTC 2020-08-31 14:11:13
Программа кодирования : mkvmerge v25.0.0 ('Prog Noir') 64-bit
Библиотека кодирования : libebml v1.3.6 + libmatroska v1.4.9
Видео
Идентификатор : 1
Формат : AVC
Формат/Информация : Advanced Video Codec
Профиль формата : High@L4
Настройки формата : CABAC / 2 Ref Frames
Параметр CABAC формата : Да
Параметр RefFrames формата : 2 кадра
Идентификатор кодека : V_MPEG4/ISO/AVC
Продолжительность : 1 ч. 53 м.
Битрейт : 5 478 Кбит/сек
Ширина : 1 920 пикселей
Высота : 1 080 пикселей
Соотношение сторон : 16:9
Режим частоты кадров : Постоянный
Частота кадров : 23,976 (24000/1001) кадра/сек
Цветовое пространство : YUV
Субдискретизация насыщенности : 4:2:0
Битовая глубина : 8 бит
Тип развёртки : Прогрессивная
Бит/(Пиксели*Кадры) : 0.110
Размер потока : 4,34 Гбайт (90%)
Заголовок : CM
Библиотека кодирования : x264 core 155 r2901 7d0ff22
Язык : English
Default : Да
Forced : Нет
Цветовой диапазон : Limited
Основные цвета : BT.709
Характеристики трансфера : BT.709
Коэффициенты матрицы : BT.709
Аудио #1
Идентификатор : 2
Формат : AC-3
Формат/Информация : Audio Coding 3
Коммерческое название : Dolby Digital
Идентификатор кодека : A_AC3
Продолжительность : 1 ч. 53 м.
Вид битрейта : Постоянный
Битрейт : 192 Кбит/сек
Каналы : 2 канала
Channel layout : L R
Частота : 48,0 КГц
Частота кадров : 31,250 кадров/сек (1536 SPF)
Метод сжатия : С потерями
Размер потока : 156 Мбайт (3%)
Заголовок : MVO @MUZOBOZ@ MediaBit
Язык : Russian
Service kind : Complete Main
Default : Нет
Forced : Нет
Аудио #2
Идентификатор : 3
Формат : AC-3
Формат/Информация : Audio Coding 3
Коммерческое название : Dolby Digital
Идентификатор кодека : A_AC3
Продолжительность : 1 ч. 53 м.
Вид битрейта : Постоянный
Битрейт : 384 Кбит/сек
Каналы : 6 каналов
Channel layout : L R C LFE Ls Rs
Частота : 48,0 КГц
Частота кадров : 31,250 кадров/сек (1536 SPF)
Метод сжатия : С потерями
Размер потока : 311 Мбайт (6%)
Язык : English
Service kind : Complete Main
Default : Нет
Forced : Нет
Текст
Идентификатор : 4
Формат : UTF-8
Идентификатор кодека : S_TEXT/UTF8
Идентификатор кодека/Информация : UTF-8 Plain Text
Продолжительность : 1 ч. 47 м.
Битрейт : 42 бит/сек
Count of elements : 1082
Размер потока : 33,4 Кбайт (0%)
Язык : English
Default : Нет
Forced : Нет

Скриншоты

--Релиз группа: Filmgrad.Ru ->
[filmgrad.ru].t150661.torrent 
Torrent: Registered [ 2020-09-09 13:53 ] · 92B131201CBD0B70806301C70A380D7C6986C666

Download .torrent

Download

15 KB

Status: checked
Completed: 0 times
Size: 4.79 GB
Оценка:  5 (Голосов: 1)
Поблагодарили: 0  Спасибо
terms.php
[Profile] [PM]
Display posts:    
Reply to topic

Current time is: 30-Sep 13:18

All times are UTC + 3



You cannot post new topics in this forum
You cannot reply to topics in this forum
You cannot edit your posts in this forum
You cannot delete your posts in this forum
You cannot vote in polls in this forum
You cannot attach files in this forum
You can download files in this forum