Мёртвые земли / The Dead Lands / 1 сезон / 1-8 серия из 8 / (Питер Бюргер, Майкл Херст) [2020, Ужасы, боевик, WEB-DL 1080p] [MVO] [Видеопродакшн]

Reply to topic
DL-List and Torrent activity
Size:  22.29 GB   |    Registered:  21 day   |    Completed:  2 times
Seeders:  6  [  0 KB/s  ]   Leechers:  18  [  0 KB/s  ]   Show peers in full details
 
     
 
 
Author Message

ZUBDOLGOPA ®

Gender: Male

Longevity: 9 months 15 days

Posts: 624

Location: Долгопрудный

Post 07-Sep-2020 21:15

[Quote]

Информация о фильме
Название: Мёртвые земли
Оригинальное название: The Dead Lands
Год выхода: 2020
Жанр: Ужасы, боевик
Режиссер: Питер Бюргер, Майкл Херст--В ролях: Те Кохе Тухака, Дарнин Кристиан, Кали Копае, Бриар Роуз, Ричард Те Аре, Стивен Грэй, Грэйс Палмер, Мириама Смит, Кирк Торранс, Джорди Веббер--О фильме:
Мифическая древность. Павший воин маори по имени Вака возвращается с того света, чтобы обнаружить, что этот свет дал трещину. Что-то поломалось между мирами, и теперь на землях Новой Зеландии на людей охотятся толпы то ли призраков, то ли зомби. Вака объединяется с молодой охотницей Мехе, чтобы докопаться до причин происходящего и, пока не поздно, починить мир.-- --Страна: Новая Зеландия
Студия: General Film Corporation
Продолжительность: 8 x ~ 00:45:00
Перевод: Профессиональный многоголосый (Официальный) | Компания "Видеопродакшн"--Файл
Кодек: MPEG-4 AVC
Качество: WEB-DL 1080p
Видео: MPEG-4 AVC, ~ 8800 Кбит/с, 1920x816
Звук: Русский (AC3, 2 ch, 192 Кбит/с), английский (E-AC3, 2 ch, 224 Кбит/с)
Субтитры: Английские--

Инфо-файл

The.Dead.Lands.S01.2020.WEB-DL.1080p.ExKinoRayThe.Dead.Lands.S01.E01.2020.WEB-DL.1080p.ExKinoRay.mkv
Format : Matroska
Format version : Version 2
File size : 2.81 GiB
Duration : 44 min 17 s
Overall bit rate : 9 099 kb/s
Encoded date : UTC 2020-09-06 22:02:58
Writing application : mkvmerge v5.8.0 ('No Sleep / Pillow') built on Sep 2 2012 15:37:04
Writing library : libebml v1.2.3 + libmatroska v1.3.0
Video
ID : 1
Format : AVC
Format/Info : Advanced Video Codec
Format profile : High@L4
Format settings : CABAC / 4 Ref Frames
Format settings, CABAC : Yes
Format settings, Reference : 4 frames
Codec ID : V_MPEG4/ISO/AVC
Duration : 44 min 17 s
Bit rate mode : Constant
Bit rate : 8 502 kb/s
Nominal bit rate : 10 000 kb/s
Width : 1 920 pixels
Height : 816 pixels
Display aspect ratio : 2.35:1
Frame rate mode : Constant
Frame rate : 23.976 (24000/1001) FPS
Color space : YUV
Chroma subsampling : 4:2:0
Bit depth : 8 bits
Scan type : Progressive
Bits/(Pixel*Frame) : 0.226
Stream size : 2.63 GiB (93%)
Language : English
Default : Yes
Forced : No
Color range : Limited
Color primaries : BT.709
Transfer characteristics : BT.709
Matrix coefficients : BT.709
Audio #1
ID : 2
Format : AC-3
Format/Info : Audio Coding 3
Commercial name : Dolby Digital
Codec ID : A_AC3
Duration : 44 min 17 s
Bit rate mode : Constant
Bit rate : 192 kb/s
Channel(s) : 2 channels
Channel layout : L R
Sampling rate : 48.0 kHz
Frame rate : 31.250 FPS (1536 SPF)
Compression mode : Lossy
Stream size : 60.8 MiB (2%)
Language : Russian
Service kind : Complete Main
Default : Yes
Forced : No
Audio #2
ID : 3
Format : E-AC-3
Format/Info : Enhanced AC-3
Commercial name : Dolby Digital Plus
Codec ID : A_EAC3
Duration : 44 min 17 s
Bit rate mode : Constant
Bit rate : 224 kb/s
Channel(s) : 2 channels
Channel layout : L R
Sampling rate : 48.0 kHz
Frame rate : 31.250 FPS (1536 SPF)
Compression mode : Lossy
Stream size : 71.0 MiB (2%)
Language : English
Service kind : Complete Main
Default : No
Forced : No
Text #1
ID : 4
Format : UTF-8
Codec ID : S_TEXT/UTF8
Codec ID/Info : UTF-8 Plain Text
Language : English
Default : No
Forced : No
Text #2
ID : 5
Format : UTF-8
Codec ID : S_TEXT/UTF8
Codec ID/Info : UTF-8 Plain Text
Title : SDH
Language : English
Default : No
Forced : No

Скриншоты

[filmgrad.ru].t150635.torrent 
 GOLD TORRENT! DOWNLOAD TRAFFIC DOES NOT CONSIDER! 
Torrent: Registered [ 2020-09-07 21:15 ] · E38B24B3E77B629565B5AB8853D643E8C227D682

Download .torrent

Download

113 KB

Status: checked
Completed: 2 times
Size: 22.29 GB
Оценка:  5 (Голосов: 1)
Поблагодарили: 1  Спасибо   (список)
terms.php
[Profile] [PM]
Display posts:    
Reply to topic

Current time is: 29-Sep 12:32

All times are UTC + 3



You cannot post new topics in this forum
You cannot reply to topics in this forum
You cannot edit your posts in this forum
You cannot delete your posts in this forum
You cannot vote in polls in this forum
You cannot attach files in this forum
You can download files in this forum