Дружить по-русски! / Inséparables (Варант Суджян) [2019, Комедия, BDRip-AVC] [DUB] [iTunes]

Reply to topic
DL-List and Torrent activity
Size:  2.13 GB   |    Registered:  23 days   |    Completed:  0 times
Seeders:  370  [  0 KB/s  ]   Leechers:  19  [  0 KB/s  ]   Show peers in full details
 
     
 
 
Author Message

ZUBDOLGOPA ®

Gender: Male

Longevity: 9 months 16 days

Posts: 626

Location: Долгопрудный

Post 07-Sep-2020 06:52

[Quote]

Информация о фильме
Название: Дружить по-русски!
Оригинальное название: Inséparables
Год выхода: 2019
Жанр: Комедия
Режиссер: Варант Суджян--В ролях: Ахмед Силла, Альбан Иванов, Жюдит Эль Зейн, Орнелла Флёри, Амир Эль Касем, Кристиан Бюжо, Давид Салль, Жан-Филипп Риччи, Пьер-Мари Москони, Лоранс Яэль--О фильме: Если ты родился во Франции, но c русской душой - ты веришь в дружбу и всегда приходишь на помощь, можешь собрать ППШ с закрытыми глазами и готов на оскорбление ответить ударом в зубы. И даже если ты чистокровный француз, ты знаешь - русские своих не бросают!--Страна: Франция
Студия: CCJ Films, M6 Films, SND Groupe M6
Продолжительность: 01:37:05
Перевод: Дублированный [iTunes]--Файл
Качество: BDRip-AVC
Формат: MKV
Кодек: MPEG-4 AVC
Видео: 1024x428 (2, 40:1), 24 fps, MPEG-4 AVC ~ 2314 Kbps avg, 0.220 bit/pixel
Аудио: AC3, 48 kHz, 6 ch, ~384.00 kbps avg | русский | iTunes
Аудио: AC3, 48 kHz, 6 ch, ~448.00 kbps avg | французский | Оригинал
Субтитры: Отсутствуют--

Тех.данные видеофайла

Общее
Уникальный идентификатор: 229820325755933461282029796537487267149 (0xACE5C8E36C99674D732B0C6A87BF154D)
Полное имя: Inseparables.2019.iT.BDRip.2.13Gb.x264.mkv
Формат: Matroska
Версия формата: Version 4
Размер файла: 2, 13 Гбайт
Продолжительность: 1 ч. 37 м.
Общий поток: 3 143 Кбит/сек
Название фильма: Дружить по-русски! / Inséparables (2019)
Дата кодирования: UTC 2020-09-07 02:58:50
Программа кодирования: mkvmerge v47.0.0 ('Black Flag') 64-bit
Библиотека кодирования: libebml v1.3.10 + libmatroska v1.5.2
Обложка: Yes
Attachments: cover.jpg
Видео
Идентификатор: 1
Формат: AVC
Формат/Информация: Advanced Video Codec
Профиль формата: High@L4.1
Настройки формата: CABAC / 9 Ref Frames
Параметр CABAC формата: Да
Параметр RefFrames формата: 9 кадров
Идентификатор кодека: V_MPEG4/ISO/AVC
Продолжительность: 1 ч. 37 м.
Битрейт: 2 314 Кбит/сек
Ширина: 1 024 пикселя
Высота: 428 пикселей
Соотношение сторон: 2, 40:1
Режим частоты кадров: Постоянный
Частота кадров: 24, 000 кадра/сек
Цветовое пространство: YUV
Субдискретизация насыщенности: 4:2:0
Битовая глубина: 8 бит
Тип развёртки: Прогрессивная
Бит/(Пиксели*Кадры): 0.220
Размер потока: 1, 57 Гбайт (73%)
Заголовок: #stillet
Библиотека кодирования: x264 core 152 r2851bm ba24899
Настройки программы: cabac=1 / ref=9 / deblock=1:-2:-2 / analyse=0x3:0x113 / me=umh / subme=10 / psy=1 / psy_rd=1.00:0.15 / mixed_ref=1 / me_range=32 / chroma_me=1 / trellis=2 / 8x8dct=1 / cqm=0 / deadzone=21, 11 / fast_pskip=0 / chroma_qp_offset=-3 / threads=8 / lookahead_threads=3 / sliced_threads=0 / nr=0 / decimate=0 / interlaced=0 / bluray_compat=0 / constrained_intra=0 / bframes=11 / b_pyramid=2 / b_adapt=2 / b_bias=0 / direct=3 / weightb=1 / open_gop=0 / weightp=2 / keyint=240 / keyint_min=23 / scenecut=40 / intra_refresh=0 / rc=2pass / mbtree=0 / bitrate=2314 / ratetol=1.0 / qcomp=0.60 / qpmin=0 / qpmax=69 / qpstep=4 / cplxblur=20.0 / qblur=0.5 / ip_ratio=1.40 / pb_ratio=1.30 / aq=1:1.00
Язык: English
Default: Да
Forced: Нет
Аудио #1
Идентификатор: 2
Формат: AC-3
Формат/Информация: Audio Coding 3
Коммерческое название: Dolby Digital
Идентификатор кодека: A_AC3
Продолжительность: 1 ч. 37 м.
Вид битрейта: Постоянный
Битрейт: 384 Кбит/сек
Каналы: 6 каналов
Channel layout: L R C LFE Ls Rs
Частота: 48, 0 КГц
Частота кадров: 31, 250 кадров/сек (1536 SPF)
Метод сжатия: С потерями
Размер потока: 267 Мбайт (12%)
Заголовок: iTunes
Язык: Russian
Service kind: Complete Main
Default: Да
Forced: Да
Аудио #2
Идентификатор: 3
Формат: AC-3
Формат/Информация: Audio Coding 3
Коммерческое название: Dolby Digital
Идентификатор кодека: A_AC3
Продолжительность: 1 ч. 37 м.
Вид битрейта: Постоянный
Битрейт: 448 Кбит/сек
Каналы: 6 каналов
Channel layout: L R C LFE Ls Rs
Частота: 48, 0 КГц
Частота кадров: 31, 250 кадров/сек (1536 SPF)
Метод сжатия: С потерями
Размер потока: 311 Мбайт (14%)
Язык: French
Service kind: Complete Main
Default: Нет
Forced: Нет
Меню
00:00:00.000: :Chapitre 01
00:09:21.500: :Chapitre 02
00:17:46.542: :Chapitre 03
00:26:15.000: :Chapitre 04
00:36:21.208: :Chapitre 05
00:45:14.000: :Chapitre 06
00:53:52.542: :Chapitre 07
01:04:53.083: :Chapitre 08
01:10:33.208: :Chapitre 09
01:19:15.583: :Chapitre 10
01:28:23.542: :Chapitre 11
01:33:54.625: :Chapitre 12
01:37:04.792: :Chapitre 13

Скриншоты

[filmgrad.ru].t150624.torrent 
Torrent: Registered [ 2020-09-07 06:52 ] · 9DF96FAA08789FD23EE56357AC9377EECBB86E2F

Download .torrent

Download

11 KB

Status: checked
Completed: 0 times
Size: 2.13 GB
Оценка:  - (Голосов: 0)
Поблагодарили: 0  Спасибо
terms.php
[Profile] [PM]
Display posts:    
Reply to topic

Current time is: 30-Sep 21:00

All times are UTC + 3



You cannot post new topics in this forum
You cannot reply to topics in this forum
You cannot edit your posts in this forum
You cannot delete your posts in this forum
You cannot vote in polls in this forum
You cannot attach files in this forum
You can download files in this forum