Любовь между строк / Gut gegen Nordwind (Ванесса Йопп) [2019, Драма, мелодрама, BDRemux 1080p] [DUB] [iTunes]

Reply to topic
DL-List and Torrent activity
Size:  27.45 GB   |    Registered:  23 days   |    Completed:  0 times
Seeders:  27  [  0 KB/s  ]   Show peers in full details
 
     
 
 
Author Message

ZUBDOLGOPA ®

Gender: Male

Longevity: 9 months 16 days

Posts: 626

Location: Долгопрудный

Post 07-Sep-2020 02:05

[Quote]

Информация о фильме
Название: Любовь между строк
Оригинальное название: Gut gegen Nordwind
Год выхода: 2019
Жанр: Драма, мелодрама
Режиссер: Ванесса Йопп--В ролях: Клаудия Эйзингер, Александр Фелинг, Пит Фукс, Анке Фюнфштюк, Мориц Фюрманн, Катарина Гирон, Джина Хенкел, Йоран Ляйхер, Доминик Марингер, Джоан Паску--О фильме: Эмми Ротнер хочет всего лишь отказаться от подписки на газету, но совершает опечатку в адресе получателя. Письмо оказывается в почтовом ящике Лео Лайке, с этого и начинается их долгая переписка и любовная история.--Страна: Германи
Студия: Komplizen Film, Erfttal Film, Deutsche Columbia Pictures Film Produktion
Продолжительность: 02:02:32
Перевод: Дублированный [iTunes]--Качество: BDRemux 1080p
Видео: MPEG-4 AVC, 1920x1080, 29.8 Mbit/s, 23.976 fps
Аудио #01: 48 kHz, AC3, 5.1, 384 Kbps | iTunes | RUS |
Аудио #02: 48 kHz, DTS-HD MA, 5.1, 1874 Kbps | Оригинал | GER |
Субтитры: Нет--

Тех.данные видеофайла

General
Unique ID : 55713431723072910771278334892702523508 (0x29EA0442E99ABC056530E40EF70D6074)
Complete name : D:Video111Gut.gegen.Nordwind.2019.BDREMUX.1080p.seleZen.mkv
Format : Matroska
Format version : Version 4
File size : 27.5 GiB
Duration : 2 h 2 min
Overall bit rate mode : Variable
Overall bit rate : 32.1 Mb/s
Movie name : Gut gegen Nordwind 2019 from селезень
Encoded date : UTC 2020-09-06 19:53:11
Writing application : mkvmerge v40.0.0 ('Old Town Road + Pony') 64-bit
Writing library : libebml v1.3.9 + libmatroska v1.5.2
Video
ID : 1
Format : AVC
Format/Info : Advanced Video Codec
Format profile : High@L4.1
Format settings : CABAC / 4 Ref Frames
Format settings, CABAC : Yes
Format settings, Reference : 4 frames
Codec ID : V_MPEG4/ISO/AVC
Duration : 2 h 2 min
Bit rate mode : Variable
Bit rate : 29.8 Mb/s
Maximum bit rate : 33.0 Mb/s
Width : 1 920 pixels
Height : 1 080 pixels
Display aspect ratio : 16:9
Frame rate mode : Constant
Frame rate : 23.976 (24000/1001) FPS
Color space : YUV
Chroma subsampling : 4:2:0
Bit depth : 8 bits
Scan type : Progressive
Bits/(Pixel*Frame) : 0.600
Stream size : 25.5 GiB (93%)
Language : German
Default : Yes
Forced : No
Audio #1
ID : 2
Format : AC-3
Format/Info : Audio Coding 3
Commercial name : Dolby Digital
Codec ID : A_AC3
Duration : 2 h 2 min
Bit rate mode : Constant
Bit rate : 384 kb/s
Channel(s) : 6 channels
Channel layout : L R C LFE Ls Rs
Sampling rate : 48.0 kHz
Frame rate : 31.250 FPS (1536 SPF)
Compression mode : Lossy
Stream size : 337 MiB (1%)
Title : iTunes
Language : Russian
Service kind : Complete Main
Default : Yes
Forced : Yes
Audio #2
ID : 3
Format : DTS XLL
Format/Info : Digital Theater Systems
Commercial name : DTS-HD Master Audio
Codec ID : A_DTS
Duration : 2 h 2 min
Bit rate mode : Variable
Bit rate : 1 874 kb/s
Channel(s) : 6 channels
Channel layout : C L R Ls Rs LFE
Sampling rate : 48.0 kHz
Frame rate : 93.750 FPS (512 SPF)
Bit depth : 16 bits
Compression mode : Lossless
Stream size : 1.60 GiB (6%)
Title : Original
Language : German
Default : No
Forced : No
Menu
00:00:00.000 : :Chapter 01
00:07:57.519 : :Chapter 02
00:14:29.118 : :Chapter 03
00:22:35.813 : :Chapter 04
00:32:54.890 : :Chapter 05
00:41:53.010 : :Chapter 06
00:46:11.894 : :Chapter 07
00:51:57.614 : :Chapter 08
01:00:37.092 : :Chapter 09
01:07:07.440 : :Chapter 10
01:14:39.725 : :Chapter 11
01:24:25.102 : :Chapter 12
01:33:00.074 : :Chapter 13
01:42:41.447 : :Chapter 14
01:46:23.502 : :Chapter 15
01:51:48.702 : :Chapter 16

Скриншоты

[filmgrad.ru].t150623.torrent 
 GOLD TORRENT! DOWNLOAD TRAFFIC DOES NOT CONSIDER! 
Torrent: Registered [ 2020-09-07 02:05 ] · 068CCEDFCFA99F3A6563738267166B768323E1C9

Download .torrent

Download

138 KB

Status: checked
Completed: 0 times
Size: 27.45 GB
Оценка:  - (Голосов: 0)
Поблагодарили: 0  Спасибо
terms.php
[Profile] [PM]
Display posts:    
Reply to topic

Current time is: 30-Sep 22:03

All times are UTC + 3



You cannot post new topics in this forum
You cannot reply to topics in this forum
You cannot edit your posts in this forum
You cannot delete your posts in this forum
You cannot vote in polls in this forum
You cannot attach files in this forum
You can download files in this forum