Любовь между строк / Gut gegen Nordwind (Ванесса Йопп) [2019, Драма, мелодрама, BDRip 720p] [DUB] [iTunes]

Reply to topic
DL-List and Torrent activity
Size:  6.59 GB   |    Registered:  22 days   |    Completed:  0 times
Seeders:  113  [  0 KB/s  ]   Leechers:  4  [  0 KB/s  ]   Show peers in full details
 
     
 
 
Author Message

ZUBDOLGOPA ®

Gender: Male

Longevity: 9 months 15 days

Posts: 624

Location: Долгопрудный

Post 07-Sep-2020 01:45

[Quote]

Информация о фильме
Название: Любовь между строк
Оригинальное название: Gut gegen Nordwind
Год выхода: 2019
Жанр: Драма, мелодрама
Режиссер: Ванесса Йопп--В ролях: Клаудия Эйзингер, Александр Фелинг, Пит Фукс, Анке Фюнфштюк, Мориц Фюрманн, Катарина Гирон, Джина Хенкел, Йоран Ляйхер, Доминик Марингер, Джоан Паску--О фильме: Эмми Ротнер хочет всего лишь отказаться от подписки на газету, но совершает опечатку в адресе получателя. Письмо оказывается в почтовом ящике Лео Лайке, с этого и начинается их долгая переписка и любовная история.--Страна: Германи
Студия: Komplizen Film, Erfttal Film, Deutsche Columbia Pictures Film Produktion
Продолжительность: 02:02:32
Перевод: Дублированный [iTunes]--Качество: BDRip 720p
Видео: MPEG-4 AVC, 1280x536, 6676 Кbit/s, 23.976 fps
Аудио #01: 48 kHz, AC3, 5.1, 384 Kbps | iTunes | RUS |
Аудио #02: 48 kHz, AC3, 5.1, 640 Kbps | Оригинал | GER |
Субтитры: Нет--

Тех.данные видеофайла

General
Unique ID : 79723262565306860739371162656011233207 (0x3BFA245130E863BA74CB7B2E2A9CA7B7)
Complete name : D:Video111Gut.gegen.Nordwind.2019.BDRip.720p.seleZen.mkv
Format : Matroska
Format version : Version 4
File size : 6.59 GiB
Duration : 2 h 2 min
Overall bit rate : 7 699 kb/s
Movie name : Gut gegen Nordwind 2019 from селезень
Encoded date : UTC 2020-09-06 20:35:59
Writing application : mkvmerge v40.0.0 ('Old Town Road + Pony') 64-bit
Writing library : libebml v1.3.9 + libmatroska v1.5.2
Video
ID : 1
Format : AVC
Format/Info : Advanced Video Codec
Format profile : High@L4.1
Format settings : CABAC / 12 Ref Frames
Format settings, CABAC : Yes
Format settings, Reference : 12 frames
Codec ID : V_MPEG4/ISO/AVC
Duration : 2 h 2 min
Bit rate : 6 676 kb/s
Width : 1 280 pixels
Height : 536 pixels
Display aspect ratio : 2.40:1
Frame rate mode : Constant
Frame rate : 23.976 (24000/1001) FPS
Color space : YUV
Chroma subsampling : 4:2:0
Bit depth : 8 bits
Scan type : Progressive
Bits/(Pixel*Frame) : 0.406
Stream size : 5.71 GiB (87%)
Title : -EA
Writing library : x264 core 159 r2991+49 524a90c t_mod_New [0-bit@all X86_64]
Encoding settings : cabac=1 / ref=12 / deblock=1:-3:-3 / analyse=0x3:0x133 / me=umh / subme=10 / psy=1 / fade_compensate=0.00 / psy_rd=0.97:0.00 / mixed_ref=1 / me_range=32 / chroma_me=1 / trellis=2 / 8x8dct=1 / cqm=0 / deadzone=21, 11 / fast_pskip=0 / chroma_qp_offset=-2 / threads=17 / lookahead_threads=4 / sliced_threads=0 / nr=0 / decimate=0 / interlaced=0 / bluray_compat=0 / constrained_intra=0 / fgo=0 / bframes=13 / b_pyramid=2 / b_adapt=2 / b_bias=0 / direct=3 / weightb=1 / open_gop=0 / weightp=2 / keyint=240 / keyint_min=23 / scenecut=40 / intra_refresh=0 / rc_lookahead=60 / rc=crf / mbtree=0 / crf=14.0500 / qcomp=0.65 / qpmin=0:0:0 / qpmax=69:69:69 / qpstep=4 / vbv_maxrate=62500 / vbv_bufsize=78125 / crf_max=0.0 / nal_hrd=none / filler=0 / ip_ratio=1.35 / pb_ratio=1.25 / aq=3:0.85 / aq-sensitivity=10.00 / aq-factor=1.00:1.00:1.00 / aq2=0 / aq3=0
Language : German
Default : Yes
Forced : No
Color range : Limited
Color primaries : BT.709
Transfer characteristics : BT.709
Matrix coefficients : BT.709
Audio #1
ID : 2
Format : AC-3
Format/Info : Audio Coding 3
Commercial name : Dolby Digital
Codec ID : A_AC3
Duration : 2 h 2 min
Bit rate mode : Constant
Bit rate : 384 kb/s
Channel(s) : 6 channels
Channel layout : L R C LFE Ls Rs
Sampling rate : 48.0 kHz
Frame rate : 31.250 FPS (1536 SPF)
Compression mode : Lossy
Stream size : 337 MiB (5%)
Title : iTunes
Language : Russian
Service kind : Complete Main
Default : Yes
Forced : Yes
Audio #2
ID : 3
Format : AC-3
Format/Info : Audio Coding 3
Commercial name : Dolby Digital
Codec ID : A_AC3
Duration : 2 h 2 min
Bit rate mode : Constant
Bit rate : 640 kb/s
Channel(s) : 6 channels
Channel layout : L R C LFE Ls Rs
Sampling rate : 48.0 kHz
Frame rate : 31.250 FPS (1536 SPF)
Compression mode : Lossy
Stream size : 561 MiB (8%)
Title : Original
Language : German
Service kind : Complete Main
Default : No
Forced : No
Menu
00:00:00.000 : :Chapter 01
00:07:57.519 : :Chapter 02
00:14:29.118 : :Chapter 03
00:22:35.813 : :Chapter 04
00:32:54.890 : :Chapter 05
00:41:53.010 : :Chapter 06
00:46:11.894 : :Chapter 07
00:51:57.614 : :Chapter 08
01:00:37.092 : :Chapter 09
01:07:07.440 : :Chapter 10
01:14:39.725 : :Chapter 11
01:24:25.102 : :Chapter 12
01:33:00.074 : :Chapter 13
01:42:41.447 : :Chapter 14
01:46:23.502 : :Chapter 15
01:51:48.702 : :Chapter 16

Скриншоты

[filmgrad.ru].t150621.torrent 
 SILVER TORRENT! DOWNLOAD TRAFFIC PARTIALLY CONSIDERED! 
Torrent: Registered [ 2020-09-07 01:45 ] · BBF9E53C79CF6CF9D36588A72BA43D768C7B032A

Download .torrent

Download

34 KB

Status: checked
Completed: 0 times
Size: 6.59 GB
Оценка:  - (Голосов: 0)
Поблагодарили: 0  Спасибо
terms.php
[Profile] [PM]
Display posts:    
Reply to topic

Current time is: 29-Sep 23:26

All times are UTC + 3



You cannot post new topics in this forum
You cannot reply to topics in this forum
You cannot edit your posts in this forum
You cannot delete your posts in this forum
You cannot vote in polls in this forum
You cannot attach files in this forum
You can download files in this forum