Дружить по-русски! / Inséparables (Варант Суджян) [2019, Комедия, BDRip 1080p] [DUB] [iTunes]

Reply to topic
DL-List and Torrent activity
Size:  9.09 GB   |    Registered:  22 days   |    Completed:  0 times
Seeders:  724  [  0 KB/s  ]   Leechers:  51  [  0 KB/s  ]   Show peers in full details
 
     
 
 
Author Message

ZUBDOLGOPA ®

Gender: Male

Longevity: 9 months 15 days

Posts: 625

Location: Долгопрудный

Post 06-Sep-2020 23:53

[Quote]

Информация о фильме
Название: Дружить по-русски!
Оригинальное название: Inséparables
Год выхода: 2019
Жанр: Комедия
Режиссер: Варант Суджян--В ролях: Ахмед Силла, Альбан Иванов, Жюдит Эль Зейн, Орнелла Флёри, Амир Эль Касем, Кристиан Бюжо, Давид Салль, Жан-Филипп Риччи, Пьер-Мари Москони, Лоранс Яэль--О фильме: Если ты родился во Франции, но c русской душой - ты веришь в дружбу и всегда приходишь на помощь, можешь собрать ППШ с закрытыми глазами и готов на оскорбление ответить ударом в зубы. И даже если ты чистокровный француз, ты знаешь - русские своих не бросают!--Страна: Франция
Студия: CCJ Films, M6 Films, SND Groupe M6
Продолжительность: 01:37:05
Перевод: Дублированный [iTunes]--Качество: BDRip 1080p
Видео: MPEG-4 AVC, 1920x804, 11.5 Mbit/s, 24.000 fps
Аудио #01: 48 kHz, AC3, 5.1, 384 Kbps | iTunes | RUS |
Аудио #02: 48 kHz, DTS, 5.1, 1510 Kbps | Оригинал | FRE |
Субтитры: Нет--

Тех.данные видеофайла

General
Unique ID: 183272724231538334527437719535312629192 (0x89E10AF23BD9FF7025BA977DE32AEDC8)
Complete name: D:Video111Inseparables.2019.BDRip.1080p.seleZen.mkv
Format: Matroska
Format version: Version 4
File size: 9.09 GiB
Duration: 1 h 37 min
Overall bit rate: 13.4 Mb/s
Movie name: Inseparables 2019 from селезень
Encoded date: UTC 2020-09-06 20:07:22
Writing application: mkvmerge v40.0.0 ('Old Town Road + Pony') 64-bit
Writing library: libebml v1.3.9 + libmatroska v1.5.2
Video
ID: 1
Format: AVC
Format/Info: Advanced Video Codec
Format profile: High@L4.1
Format settings: CABAC / 5 Ref Frames
Format settings, CABAC: Yes
Format settings, Reference: 5 frames
Codec ID: V_MPEG4/ISO/AVC
Duration: 1 h 37 min
Bit rate: 11.5 Mb/s
Width: 1 920 pixels
Height: 804 pixels
Display aspect ratio: 2.40:1
Frame rate mode: Constant
Frame rate: 24.000 FPS
Color space: YUV
Chroma subsampling: 4:2:0
Bit depth: 8 bits
Scan type: Progressive
Bits/(Pixel*Frame): 0.311
Stream size: 7.81 GiB (86%)
Title: BEO
Writing library: x264 core 158 r2984 3759fcb
Encoding settings: cabac=1 / ref=5 / deblock=1:-3:-3 / analyse=0x3:0x133 / me=umh / subme=11 / psy=1 / psy_rd=1.05:0.14 / mixed_ref=1 / me_range=64 / chroma_me=1 / trellis=2 / 8x8dct=1 / cqm=0 / deadzone=6, 6 / fast_pskip=0 / chroma_qp_offset=-6 / threads=6 / lookahead_threads=4 / sliced_threads=0 / nr=0 / decimate=0 / interlaced=0 / bluray_compat=0 / constrained_intra=0 / bframes=8 / b_pyramid=2 / b_adapt=2 / b_bias=0 / direct=3 / weightb=1 / open_gop=1 / weightp=2 / keyint=250 / keyint_min=24 / scenecut=40 / intra_refresh=0 / rc_lookahead=240 / rc=2pass / mbtree=1 / bitrate=11524 / ratetol=1.0 / qcomp=0.65 / qpmin=0 / qpmax=69 / qpstep=4 / cplxblur=20.0 / qblur=0.5 / vbv_maxrate=62500 / vbv_bufsize=78125 / nal_hrd=none / filler=0 / ip_ratio=1.24 / aq=2:0.75
Language: French
Default: Yes
Forced: No
Color range: Limited
Color primaries: BT.709
Transfer characteristics: BT.709
Matrix coefficients: BT.709
Audio #1
ID: 2
Format: AC-3
Format/Info: Audio Coding 3
Commercial name: Dolby Digital
Codec ID: A_AC3
Duration: 1 h 37 min
Bit rate mode: Constant
Bit rate: 384 kb/s
Channel(s): 6 channels
Channel layout: L R C LFE Ls Rs
Sampling rate: 48.0 kHz
Frame rate: 31.250 FPS (1536 SPF)
Compression mode: Lossy
Stream size: 267 MiB (3%)
Title: iTunes
Language: Russian
Service kind: Complete Main
Default: Yes
Forced: Yes
Audio #2
ID: 3
Format: DTS
Format/Info: Digital Theater Systems
Codec ID: A_DTS
Duration: 1 h 37 min
Bit rate mode: Constant
Bit rate: 1 509 kb/s
Channel(s): 6 channels
Channel layout: C L R Ls Rs LFE
Sampling rate: 48.0 kHz
Frame rate: 93.750 FPS (512 SPF)
Bit depth: 24 bits
Compression mode: Lossy
Stream size: 1.02 GiB (11%)
Title: Original
Language: French
Default: No
Forced: No
Menu
00:00:00.000: :Chapitre 01
00:09:21.500: :Chapitre 02
00:17:46.542: :Chapitre 03
00:26:15.000: :Chapitre 04
00:36:21.208: :Chapitre 05
00:45:14.000: :Chapitre 06
00:53:52.542: :Chapitre 07
01:04:53.083: :Chapitre 08
01:10:33.208: :Chapitre 09
01:19:15.583: :Chapitre 10
01:28:23.542: :Chapitre 11
01:33:54.625: :Chapitre 12
01:37:04.792: :Chapitre 13

Скриншоты

[filmgrad.ru].t150617.torrent 
 SILVER TORRENT! DOWNLOAD TRAFFIC PARTIALLY CONSIDERED! 
Torrent: Registered [ 2020-09-06 23:53 ] · 51B4FDE3D725C5D96AE21822392E44A3BA13EF09

Download .torrent

Download

46 KB

Status: checked
Completed: 0 times
Size: 9.09 GB
Оценка:  - (Голосов: 0)
Поблагодарили: 0  Спасибо
terms.php
[Profile] [PM]
Display posts:    
Reply to topic

Current time is: 29-Sep 13:29

All times are UTC + 3



You cannot post new topics in this forum
You cannot reply to topics in this forum
You cannot edit your posts in this forum
You cannot delete your posts in this forum
You cannot vote in polls in this forum
You cannot attach files in this forum
You can download files in this forum