Зеркала: Реинкарнация (У тебя за спиной)/ Behind You (Эндрю Мечэм, Мэттью Уэдон) [2020, ужасы, WEB-DLRip] [DUB] [iTunes]

Reply to topic
DL-List and Torrent activity
Size:  1.46 GB   |    Registered:  22 days   |    Completed:  1 time
Seeders:  660  [  0 KB/s  ]   Leechers:  25  [  0 KB/s  ]   Show peers in full details
 
     
 
 
Author Message

ZUBDOLGOPA ®

Gender: Male

Longevity: 9 months 15 days

Posts: 625

Location: Долгопрудный

Post 06-Sep-2020 21:55

[Quote]

Информация о фильме
Название: Зеркала: Реинкарнация (У тебя за спиной)
Оригинальное название: Behind You
Год выхода: 2020
Жанр: ужасы
Режиссер: Эндрю Мечэм, Мэттью Уэдон--В ролях: Эдди Миллер, Элизабет Биркнер, Джен Броберг, Филип Броди, Эйми-Линн Чедвик, Кори Абреу, Сиенна Карлсон, Скайлер М. Дэй, Стерлинг Эванс, Кэролайн Лэбрум--О фильме: После смерти матери две несовершеннолетние сестры Оливия и Клэр прибывают в дом родной тёти Бет, которая не очень-то рада гостям. 40 лет назад в этом доме нечто убило младшую сестру Бет, и теперь женщина строго-настрого запрещает девочкам спускаться в подвал. Но ночью голос зовёт младшую Клэр: указывает ей, где найти ключ от подвала, велит подойти к зеркалу и произнести заклинание, чтобы тёмная сущность могла пробраться в этот мир.--Выпущено: США / Parallellogram, Tremendum Pictures
Продолжительность: 01:26:15
Озвучивание: Дублированное iTunes--Файл
Формат: AVI
Качество: WEB-DLRip | AMAZON Version
Видео: XviD, 2022 Kb/s, 720x304
Аудио: Russian: 48 kHz, AC3 Dolby Digital, 3/2 (L, C, R, l, r) + LFE ch, ~384 Kbps | iTunes
Субтитры: Нет
Скачать: Сэмпл--

Тех.данные видеофайла

Формат: AVI
Формат/Информация: Audio Video Interleave
Размер файла: 1, 46 Гбайт
Продолжительность: 1 ч. 26 м.
Общий поток: 2 416 Кбит/сек
Название фильма: У тебя за спиной_2020_WEB-DLRip
Программа кодирования: VirtualDubMod 1.5.10.3 | www.virtualdub-fr.org || (build 2550/release)
Авторское право: порошков
Видео
Идентификатор: 0
Формат: MPEG-4 Visual
Профиль формата: Advanced Simple@L5
Настройки формата: BVOP1 / Custom Matrix
Параметр BVOP формата: 1
Параметр QPel формата: Нет
Параметр GMC формата: Без точки перехода
Параметр матрицы формата: Выборочная
Идентификатор кодека: XVID
Идентификатор кодека/Подсказка: XviD
Продолжительность: 1 ч. 26 м.
Битрейт: 2 023 Кбит/сек
Ширина: 720 пикселей
Высота: 304 пикселя
Соотношение сторон: 2, 35:1
Частота кадров: 23, 976 (24000/1001) кадра/сек
Цветовое пространство: YUV
Субдискретизация насыщенности: 4:2:0
Битовая глубина: 8 бит
Тип развёртки: Прогрессивная
Метод сжатия: С потерями
Бит/(Пиксели*Кадры): 0.386
Размер потока: 1, 22 Гбайт (84%)
Библиотека кодирования: XviD 73
Аудио
Идентификатор: 1
Формат: AC-3
Формат/Информация: Audio Coding 3
Коммерческое название: Dolby Digital
Идентификатор кодека: 2000
Продолжительность: 1 ч. 26 м.
Вид битрейта: Постоянный
Битрейт: 384 Кбит/сек
Каналы: 6 каналов
Channel layout: L R C LFE Ls Rs
Частота: 48, 0 КГц
Частота кадров: 31, 250 кадров/сек (1536 SPF)
Метод сжатия: С потерями
Размер потока: 237 Мбайт (16%)
Выравнивание: Разделение по промежуткам
Продолжительность промежутка: 42 мс. (1, 00 видеокадр)
Время предзагрузки промежутка: 500 мс.
Service kind: Complete Main

Скриншоты

[filmgrad.ru].t150616.torrent 
Torrent: Registered [ 2020-09-06 21:55 ] · F371F0D5DC429F890E3CE8C011AACAAB0CAB5776

Download .torrent

Download

15 KB

Status: checked
Completed: 1 times
Size: 1.46 GB
Оценка:  - (Голосов: 0)
Поблагодарили: 0  Спасибо
terms.php
[Profile] [PM]
Display posts:    
Reply to topic

Current time is: 29-Sep 14:33

All times are UTC + 3



You cannot post new topics in this forum
You cannot reply to topics in this forum
You cannot edit your posts in this forum
You cannot delete your posts in this forum
You cannot vote in polls in this forum
You cannot attach files in this forum
You can download files in this forum