Зеркала: Реинкарнация (У тебя за спиной)/ Behind You (Эндрю Мечэм, Мэттью Уэдон) [2020, ужасы, WEB-DL 1080p] [DUB] [iTunes]

Reply to topic
DL-List and Torrent activity
Size:  3.15 GB   |    Registered:  22 days   |    Completed:  1 time
Seeders:  560  [  0 KB/s  ]   Leechers:  27  [  0 KB/s  ]   Show peers in full details
 
     
 
 
Author Message

ZUBDOLGOPA ®

Gender: Male

Longevity: 9 months 15 days

Posts: 625

Location: Долгопрудный

Post 06-Sep-2020 21:36

[Quote]

Информация о фильме
Название: Зеркала: Реинкарнация (У тебя за спиной)
Оригинальное название: Behind You
Год выхода: 2020
Жанр: ужасы
Режиссер: Эндрю Мечэм, Мэттью Уэдон--В ролях: Эдди Миллер, Элизабет Биркнер, Джен Броберг, Филип Броди, Эйми-Линн Чедвик, Кори Абреу, Сиенна Карлсон, Скайлер М. Дэй, Стерлинг Эванс, Кэролайн Лэбрум--О фильме: После смерти матери две несовершеннолетние сестры Оливия и Клэр прибывают в дом родной тёти Бет, которая не очень-то рада гостям. 40 лет назад в этом доме нечто убило младшую сестру Бет, и теперь женщина строго-настрого запрещает девочкам спускаться в подвал. Но ночью голос зовёт младшую Клэр: указывает ей, где найти ключ от подвала, велит подойти к зеркалу и произнести заклинание, чтобы тёмная сущность могла пробраться в этот мир.--Выпущено: США / Parallellogram, Tremendum Pictures
Продолжительность: 01:26:15
Озвучивание: Дублированное iTunes--Файл
Формат: MKV (x264)
Качество: WEB-DL 1080p | AMAZON Version
Видео: 4613 Kb/s, 1920x816
Аудио #1: Russian: 48 kHz, AC3 Dolby Digital, 3/2 (L, C, R, l, r) + LFE ch, ~384 Kbps | iTunes
Аудио #2: English: 48 kHz, Enhanced Audio Coding 3, 2/0 (L, R) ch, ~224 Kbps | Original
Субтитры: English (Full, SDH)
Дополнительно: Сохранены оригинальные чаптеры.--Релиз от: @ BlurayDude--

Тех.данные видеофайла

Video
ID: 1
Format: AVC
Format/Info: Advanced Video Codec
Format profile: High@L4
Format settings: CABAC / 4 Ref Frames
Format settings, CABAC: Yes
Format settings, Reference: 4 frames
Codec ID: V_MPEG4/ISO/AVC
Duration: 1 h 26 min
Bit rate mode: Constant
Bit rate: 4 613 kb/s
Nominal bit rate: 10 000 kb/s
Width: 1 920 pixels
Height: 816 pixels
Display aspect ratio: 2.35:1
Frame rate mode: Constant
Frame rate: 23.976 (24000/1001) FPS
Color space: YUV
Chroma subsampling: 4:2:0
Bit depth: 8 bits
Scan type: Progressive
Bits/(Pixel*Frame): 0.123
Stream size: 2.78 GiB (88%)
Title: BEHIND_U_2020_WEB-DL_1080p_AMAZON-BLUEBIRD
Default: Yes
Forced: No
Color range: Limited
Color primaries: BT.709
Transfer characteristics: BT.709
Matrix coefficients: BT.709
Audio #1
ID: 2
Format: AC-3
Format/Info: Audio Coding 3
Commercial name: Dolby Digital
Codec ID: A_AC3
Duration: 1 h 26 min
Bit rate mode: Constant
Bit rate: 384 kb/s
Channel(s): 6 channels
Channel layout: L R C LFE Ls Rs
Sampling rate: 48.0 kHz
Frame rate: 31.250 FPS (1536 SPF)
Compression mode: Lossy
Stream size: 237 MiB (7%)
Title: [DUB] DD 5.1 @ 384 kbps (iTunes)
Language: Russian
Service kind: Complete Main
Default: Yes
Forced: No
Audio #2
ID: 3
Format: E-AC-3
Format/Info: Enhanced AC-3
Commercial name: Dolby Digital Plus
Codec ID: A_EAC3
Duration: 1 h 26 min
Bit rate mode: Constant
Bit rate: 224 kb/s
Channel(s): 2 channels
Channel layout: L R
Sampling rate: 48.0 kHz
Frame rate: 31.250 FPS (1536 SPF)
Compression mode: Lossy
Stream size: 138 MiB (4%)
Title: [ORIGINAL] DD+ 2.0 @ 224 kbps (Amazon)
Language: English
Service kind: Complete Main
Default: No
Forced: No
Text #1
ID: 4
Format: UTF-8
Codec ID: S_TEXT/UTF8
Codec ID/Info: UTF-8 Plain Text
Duration: 1 h 20 min
Bit rate: 30 b/s
Count of elements: 768
Stream size: 18.2 KiB (0%)
Title: Full-length
Language: English
Default: No
Forced: No
Text #2
ID: 5
Format: UTF-8
Codec ID: S_TEXT/UTF8
Codec ID/Info: UTF-8 Plain Text
Duration: 1 h 22 min
Bit rate: 36 b/s
Count of elements: 957
Stream size: 22.1 KiB (0%)
Title: SDH
Language: English
Default: No
Forced: No
Menu
00:00:00.000: en:Глава 1
00:07:52.958: en:Глава 2
00:16:07.624: en:Глава 3
00:24:10.207: en:Глава 4
00:32:12.540: en:Глава 5
00:40:22.915: en:Глава 6
00:48:40.790: en:Глава 7
00:56:51.373: en:Глава 8
01:04:36.456: en:Глава 9
01:12:46.914: en:Глава 10
01:21:11.914: en:Глава 11

Скриншоты

[filmgrad.ru].t150615.torrent 
Torrent: Registered [ 2020-09-06 21:36 ] · 932B985244DC1DDC4D2B576AB9A0A8D66339137D

Download .torrent

Download

8 KB

Status: checked
Completed: 1 times
Size: 3.15 GB
Оценка:  - (Голосов: 0)
Поблагодарили: 0  Спасибо
terms.php
[Profile] [PM]
Display posts:    
Reply to topic

Current time is: 29-Sep 13:15

All times are UTC + 3



You cannot post new topics in this forum
You cannot reply to topics in this forum
You cannot edit your posts in this forum
You cannot delete your posts in this forum
You cannot vote in polls in this forum
You cannot attach files in this forum
You can download files in this forum