Пацаны / The Boys / Сезон: 2 / Серии: 1-5 из 8 (Филип Сгриккиа, Дэниэл Эттиэс, Дженнифер Фанг) [2019, фантастика, боевик, комедия, криминал, WEB-DL 1080p] [MVO] [HDRezka Studio]

Reply to topic
DL-List and Torrent activity
Size:  18.42 GB   |    Registered:  11 days   |    Completed:  0 times
Seeders:  78  [  0 KB/s  ]   Leechers:  206  [  0 KB/s  ]   Show peers in full details
 
     
 
 
Author Message

ZUBDOLGOPA ®

Gender: Male

Longevity: 9 months 16 days

Posts: 626

Location: Долгопрудный

Post 05-Sep-2020 17:49

[Quote]

-═╬ Пацаны ╬═--Название: Пацаны
Оригинальное название: The Boys
Год выхода: 2020
Жанр: Фантастика, боевик, комедия, криминал
Режиссер: Филип Сгриккиа, Дэниэл Эттиэс, Эрик Крипке--В ролях:
Карл Урбан, Чейс Кроуфорд, Доминик МакЭллигот, Нэйтан Митчелл, Эрин Мориарти, Джек Куэйд, Элизабет Шу, Энтони Старр, Джесси Ашер, Лаз Алонсо и др.--Описание:
Действие сериала разворачивается в мире, где существуют супергерои. Именно они являются настоящими звездами. Их все знают и обожают. Но за идеальным фасадом скрывается гораздо более мрачный мир наркотиков и секса, а большинство героев — в жизни не самые приятные люди. Противостоит им отряд, неофициально известный как «Пацаны».-- --Страна: США
Студии: Amazon Studios, Original Film, Point Grey Pictures, Sony Pictures Television
Продолжительность: ~01:00:00
Перевод: Профессиональный (многоголосый, закадровый) HDRezka Studio
Субтитры: Русские (Forced, Full), английские (Forced, SDH)--Файл
Формат: MKV
Качество: WEB-DL (1080p)
Видео: 1920x800 (16:9), 23,976 fps, AVC (х264), High@L4, ~7535 kbps avg, 0.205 bit/pixel
Аудио RUS: 48 kHz, Е-AC3, 3/2 (L,C,R,l,r) + LFE ch, ~640 kbps
Аудио ENG: 48 kHz, Е-AC3, 3/2 (L,C,R,l,r) + LFE ch, ~640 kbps-- --

Доп. информация

Премьера (мир): 04 сентября 2020

Список серий

2.01 The Big Ride (4 сентября 2020)
2.02 Proper Preparation and Planning (4 сентября 2020)
2.03 Over the Hill With the Swords of a Thousand Men (4 сентября 2020)
2.04 Nothing Like It In the World (11 сентября 2020)
2.05 We Gotta Go Now (18 сентября 2020)
2.06 The Bloody Doors Off (25 сентября 2020)
2.07 Butcher, Baker, Candlestick Maker (2 октября 2020)
2.08 What I Know (9 октября 2020)

MediaInfo

Общее
Уникальный идентификатор : 101105206702753994461310689807324030234 (0x4C10278E1D0C87529A517F6EEA36251A)
Полное имя : E:The.Boys.S02E01.WEB-DL.1080p.AMZN.HDREZKA.STUDIO.mkv
Формат : Matroska
Версия формата : Version 4
Размер файла : 3,88 Гбайт
Продолжительность : 1 ч. 2 м.
Общий поток : 8 817 Кбит/сек
Дата кодирования : UTC 2020-09-05 08:15:32
Программа кодирования : mkvmerge v49.0.0 ('Sick Of Losing Soulmates') 64-bit
Библиотека кодирования : libebml v1.4.0 + libmatroska v1.6.1
Attachments : poster.jpg
Видео
Идентификатор : 1
Формат : AVC
Формат/Информация : Advanced Video Codec
Профиль формата : High@L4
Настройки формата : CABAC / 4 Ref Frames
Параметр CABAC формата : Да
Параметр RefFrames формата : 4 кадра
Идентификатор кодека : V_MPEG4/ISO/AVC
Продолжительность : 1 ч. 2 м.
Вид битрейта : Постоянный
Битрейт : 7 535 Кбит/сек
Номинальный битрейт : 10 000 Кбит/сек
Ширина : 1 920 пикселей
Высота : 800 пикселей
Соотношение сторон : 2,40:1
Режим частоты кадров : Постоянный
Частота кадров : 23,976 (24000/1001) кадра/сек
Цветовое пространство : YUV
Субдискретизация насыщенности : 4:2:0
Битовая глубина : 8 бит
Тип развёртки : Прогрессивная
Бит/(Пиксели*Кадры) : 0.205
Размер потока : 3,31 Гбайт (85%)
Default : Да
Forced : Нет
Цветовой диапазон : Limited
Основные цвета : BT.709
Характеристики трансфера : BT.709
Коэффициенты матрицы : BT.709
Аудио #1
Идентификатор : 2
Формат : E-AC-3
Формат/Информация : Enhanced AC-3
Коммерческое название : Dolby Digital Plus
Идентификатор кодека : A_EAC3
Продолжительность : 1 ч. 2 м.
Вид битрейта : Постоянный
Битрейт : 640 Кбит/сек
Каналы : 6 каналов
Channel layout : L R C LFE Ls Rs
Частота : 48,0 КГц
Частота кадров : 31,250 кадров/сек (1536 SPF)
Метод сжатия : С потерями
Размер потока : 288 Мбайт (7%)
Язык : Russian
Default : Да
Forced : Нет
Аудио #2
Идентификатор : 3
Формат : E-AC-3
Формат/Информация : Enhanced AC-3
Коммерческое название : Dolby Digital Plus
Идентификатор кодека : A_EAC3
Продолжительность : 1 ч. 2 м.
Вид битрейта : Постоянный
Битрейт : 640 Кбит/сек
Каналы : 6 каналов
Channel layout : L R C LFE Ls Rs
Частота : 48,0 КГц
Частота кадров : 31,250 кадров/сек (1536 SPF)
Метод сжатия : С потерями
Размер потока : 288 Мбайт (7%)
Язык : English
Default : Нет
Forced : Нет
Текст #1
Идентификатор : 4
Формат : UTF-8
Идентификатор кодека : S_TEXT/UTF8
Идентификатор кодека/Информация : UTF-8 Plain Text
Продолжительность : 56 м. 38 с.
Битрейт : 7 бит/сек
Count of elements : 63
Размер потока : 3,10 Кбайт (0%)
Заголовок : Forced
Язык : Russian
Default : Да
Forced : Нет
Текст #2
Идентификатор : 5
Формат : UTF-8
Идентификатор кодека : S_TEXT/UTF8
Идентификатор кодека/Информация : UTF-8 Plain Text
Продолжительность : 1 ч. 2 м.
Битрейт : 106 бит/сек
Count of elements : 903
Размер потока : 48,7 Кбайт (0%)
Заголовок : Full
Язык : Russian
Default : Нет
Forced : Нет
Текст #3
Идентификатор : 6
Формат : UTF-8
Идентификатор кодека : S_TEXT/UTF8
Идентификатор кодека/Информация : UTF-8 Plain Text
Продолжительность : 24 с. 608 мс.
Битрейт : 58 бит/сек
Count of elements : 8
Размер потока : 179 байт (0%)
Заголовок : Forced
Язык : English
Default : Нет
Forced : Нет
Текст #4
Идентификатор : 7
Формат : UTF-8
Идентификатор кодека : S_TEXT/UTF8
Идентификатор кодека/Информация : UTF-8 Plain Text
Продолжительность : 1 ч. 2 м.
Битрейт : 72 бит/сек
Count of elements : 1164
Размер потока : 33,2 Кбайт (0%)
Заголовок : SDH
Язык : English
Default : Нет
Forced : Нет
Меню
00:00:00.000 : en:Amazon Original
00:00:05.000 : en:Ratings
00:00:15.000 : en:Previously On
00:02:58.000 : en:Collateral damage negotiations
00:06:11.000 : en:A memorial service
00:09:42.000 : en:Post-funeral interview
00:11:30.000 : en:Title Sequence | Hughie in bed
00:11:37.000 : en:Getting ready
00:14:30.000 : en:Secret meetings
00:17:17.000 : en:The Deep has a meltdown
00:18:42.000 : en:Watching TV
00:19:48.000 : en:Team arguments
00:21:20.000 : en:Homelander is in power
00:27:03.000 : en:Making money
00:30:02.000 : en:A new patient
00:31:37.000 : en:Watching the tapes
00:33:43.000 : en:Focus groups
00:35:08.000 : en:A safe space
00:38:19.000 : en:What to do next
00:43:05.000 : en:Black mail
00:46:40.000 : en:New kid on the block
00:48:50.000 : en:CIA meeting
00:51:23.000 : en:Homelander confronts Stan
00:56:07.000 : en:An unexpected visit
00:56:40.000 : en:Lies and deceit
01:00:56.000 : en:End Credits

Внимание! Раздача ведётся путём добавления новых серий

Внимание! Раздача ведётся путём добавления новых серий; при каждом добавлении создаётся новый торрент. Чтобы начать докачку новой серии, пользователям необходимо сделать следующее:
(1) остановить скачивание,
(2) удалить старый торрент у себя из клиента (старые серии удалять не надо),
(3) скачать новый торрент и запустить его у себя в клиенте вместо старого, при этом указать клиенту путь в старую папку куда и должно происходить скачивание новых серий.
Ваш клиент при этом должен произвести хеширование (проверку) старой папки (если не производит сам - помогите ему сделать это), и будет докачивать только те серии которых у вас ещё нет. Старые серии при этом не удаляются, а продолжают раздаваться!
Eсли вы уже удалили старые серии, то предотвратить повторную закачку старых серий можно, отжав галочку в соответсвующих местах при запуске нового торрента. По возможности, желательно не удалять старые серии как можно дольше чтобы релизёр не столько продолжал раздавать старые серии, а смог сконцентрироваться на новых.

Скриншоты

[filmgrad.ru].t150553.torrent 
 GOLD TORRENT! DOWNLOAD TRAFFIC DOES NOT CONSIDER! 
Torrent: Registered [ 2020-09-18 23:12 ] · 865F245A2859A12D0EED7AFFEA7148D4483FF2BF

Download .torrent

Download

47 KB

Status: checked
Completed: 0 times
Size: 18.42 GB
Оценка:  - (Голосов: 0)
Поблагодарили: 0  Спасибо
terms.php
[Profile] [PM]
Display posts:    
Reply to topic

Current time is: 30-Sep 13:14

All times are UTC + 3



You cannot post new topics in this forum
You cannot reply to topics in this forum
You cannot edit your posts in this forum
You cannot delete your posts in this forum
You cannot vote in polls in this forum
You cannot attach files in this forum
You can download files in this forum