Пацаны / The Boys / Сезон: 2 / Серии: 1-6 из 8 (Филип Сгриккиа, Дэниэл Эттиэс, Дженнифер Фанг) [2019, фантастика, боевик, комедия, криминал, WEB-DLRip-AVC] [MVO] [HDRezka Studio]

Reply to topic
DL-List and Torrent activity
Size:  6.64 GB   |    Registered:  2 days 6 hours   |    Completed:  0 times
Seeders:  101  [  0 KB/s  ]   Leechers:  202  [  0 KB/s  ]   Show peers in full details
 
     
 
 
Author Message

ZUBDOLGOPA ®

Gender: Male

Longevity: 9 months 15 days

Posts: 625

Location: Долгопрудный

Post 05-Sep-2020 17:32

[Quote]

-═╬ Пацаны ╬═--Название: Пацаны
Оригинальное название: The Boys
Год выхода: 2020
Жанр: Фантастика, [боевик, комедия, криминал
Режиссер: Филип Сгриккиа, Дэниэл Эттиэс, Дженнифер Фанг--В ролях: Карл Урбан, Доминик МакЭллигот, Эрин Мориарти, Элизабет Шу, Энтони Старр, Дженнифер Эспозито, Саймон Пегг, Шантель Ван Сантен, Хэйли Джоэл Осмент, Чейс Кроуфорд, Нэйтан Митчелл, Джек Куэйд, Джесси Ашер, Билли Зейн, Джим Бивер, Лас Алонсо, Джанкарло Эспозито, Джимми Фэллон, Тара Рид, Сет Роген--О сериале: Действие сериала разворачивается в мире, где существуют супергерои. Именно они являются настоящими звездами. Их все знают и обожают. Но за идеальным фасадом скрывается гораздо более мрачный мир наркотиков и секса, а большинство героев — в жизни не самые приятные люди. Для контроля за супергероями ЦРУ создает специальный отряд, неофициально известный как «Пацаны», суровые члены которого всегда готовы поставить зазнавшегося героя на место самым жестоким способом.-- --Страна: США
Продолжительность: ~ 01:00:00
Перевод: Профессиональный (многоголосый, закадровый) HDRezka Studio-- --Формат: MKV
Качество: WEB-DLRip-AVC
Видео: MPEG-4 AVC, 720x300 (2.35:1), 23.976 fps, 1700 Kbps, 0.328 bit/pixel
Аудио #01: 48 kHz, AC3, 5.1, 448 Kbps | HDRezka | RUS |
Аудио #02: 48 kHz, AC3, 5.1, 384 Kbps | Оригинал | ENG |
Субтитры: Русские (форсированные, полные), английские--Релиз от: --

Доп. информация

Премьера (мир): 04 сентября 2020

Список серий

2.01 The Big Ride (4 сентября 2020)
2.02 Proper Preparation and Planning (4 сентября 2020)
2.03 Over the Hill With the Swords of a Thousand Men (4 сентября 2020)
2.04 Nothing Like It In the World (11 сентября 2020)
2.05 We Gotta Go Now (18 сентября 2020)
2.06 The Bloody Doors Off (25 сентября 2020)
2.07 Butcher, Baker, Candlestick Maker (2 октября 2020)
2.08 What I Know (9 октября 2020)

ОтчетМедиаИнфо

General
Unique ID : 199147634123639561869580575425990796074 (0x95D2706ED69E68D5A994E1730994A32A)
Complete name : F:The.Boys.S02E01.The.Big.Ride.AMZN.WEB-DL.AVC.ExKinoRay.mkv
Format : Matroska
Format version : Version 2
File size : 1.11 GiB
Duration : 1 h 2 min
Overall bit rate : 2 534 kb/s
Movie name : The Boys S02E01 2020 from ExKinoRay
Encoded date : UTC 2020-09-05 12:22:42
Writing application : mkvmerge v5.6.0 ('Kenya Kane') built on May 27 2012 16:44:04
Writing library : libebml v1.2.3 + libmatroska v1.3.0
Video
ID : 1
Format : AVC
Format/Info : Advanced Video Codec
Format profile : High@L4.1
Format settings, CABAC : Yes
Format settings, ReFrames : 12 frames
Codec ID : V_MPEG4/ISO/AVC
Duration : 1 h 2 min
Bit rate : 1 700 kb/s
Width : 720 pixels
Height : 300 pixels
Display aspect ratio : 2.40:1
Frame rate mode : Constant
Frame rate : 23.976 (23976/1000) FPS
Color space : YUV
Chroma subsampling : 4:2:0
Bit depth : 8 bits
Scan type : Progressive
Bits/(Pixel*Frame) : 0.328
Stream size : 744 MiB (65%)
Title : Enigma
Writing library : x264 core 152 r2851 ba24899
Encoding settings : cabac=1 / ref=12 / deblock=1:-2:-2 / analyse=0x3:0x113 / me=umh / subme=10 / psy=1 / psy_rd=1.03:0.08 / mixed_ref=1 / me_range=32 / chroma_me=1 / trellis=2 / 8x8dct=1 / cqm=0 / deadzone=21,11 / fast_pskip=0 / chroma_qp_offset=-3 / threads=9 / lookahead_threads=1 / sliced_threads=0 / nr=0 / decimate=0 / interlaced=0 / bluray_compat=0 / constrained_intra=0 / bframes=9 / b_pyramid=2 / b_adapt=2 / b_bias=0 / direct=3 / weightb=1 / open_gop=0 / weightp=2 / keyint=240 / keyint_min=23 / scenecut=40 / intra_refresh=0 / rc=2pass / mbtree=0 / bitrate=1700 / ratetol=1.0 / qcomp=0.60 / qpmin=0 / qpmax=51 / qpstep=4 / cplxblur=20.0 / qblur=0.5 / ip_ratio=1.30 / pb_ratio=1.20 / aq=1:1.00
Language : English
Default : Yes
Forced : No
Color range : Limited
Color primaries : BT.709
Transfer characteristics : BT.709
Matrix coefficients : BT.709
Audio #1
ID : 2
Format : AC-3
Format/Info : Audio Coding 3
Mode extension : CM (complete main)
Format settings, Endianness : Big
Codec ID : A_AC3
Duration : 1 h 2 min
Bit rate mode : Constant
Bit rate : 448 kb/s
Channel(s) : 6 channels
Channel positions : Front: L C R, Side: L R, LFE
Sampling rate : 48.0 kHz
Frame rate : 31.250 FPS (1536 spf)
Compression mode : Lossy
Stream size : 202 MiB (18%)
Title : MVO (HDrezka Studio)
Language : Russian
Default : Yes
Forced : No
Audio #2
ID : 3
Format : AC-3
Format/Info : Audio Coding 3
Mode extension : CM (complete main)
Format settings, Endianness : Big
Codec ID : A_AC3
Duration : 1 h 2 min
Bit rate mode : Constant
Bit rate : 384 kb/s
Channel(s) : 6 channels
Channel positions : Front: L C R, Side: L R, LFE
Sampling rate : 48.0 kHz
Frame rate : 31.250 FPS (1536 spf)
Compression mode : Lossy
Stream size : 173 MiB (15%)
Language : English
Default : No
Forced : No
Text #1
ID : 4
Format : UTF-8
Codec ID : S_TEXT/UTF8
Codec ID/Info : UTF-8 Plain Text
Title : Forced
Language : Russian
Default : Yes
Forced : No
Text #2
ID : 5
Format : UTF-8
Codec ID : S_TEXT/UTF8
Codec ID/Info : UTF-8 Plain Text
Title : Full (AMAZON)
Language : Russian
Default : No
Forced : No
Text #3
ID : 6
Format : UTF-8
Codec ID : S_TEXT/UTF8
Codec ID/Info : UTF-8 Plain Text
Title : Forced
Language : English
Default : No
Forced : No
Text #4
ID : 7
Format : UTF-8
Codec ID : S_TEXT/UTF8
Codec ID/Info : UTF-8 Plain Text
Title : SDH
Language : English
Default : No
Forced : No
Menu
00:00:00.000 : en:Amazon Original
00:00:05.000 : en:Ratings
00:00:15.000 : en:Previously On
00:02:58.000 : en:Collateral damage negotiations
00:06:11.000 : en:A memorial service
00:09:42.000 : en:Post-funeral interview
00:11:30.000 : en:Title Sequence | Hughie in bed
00:11:37.000 : en:Getting ready
00:14:30.000 : en:Secret meetings
00:17:17.000 : en:The Deep has a meltdown
00:18:42.000 : en:Watching TV
00:19:48.000 : en:Team arguments
00:21:20.000 : en:Homelander is in power
00:27:03.000 : en:Making money
00:30:02.000 : en:A new patient
00:31:37.000 : en:Watching the tapes
00:33:43.000 : en:Focus groups
00:35:08.000 : en:A safe space
00:38:19.000 : en:What to do next
00:43:05.000 : en:Black mail
00:46:40.000 : en:New kid on the block
00:48:50.000 : en:CIA meeting
00:51:23.000 : en:Homelander confronts Stan
00:56:07.000 : en:An unexpected visit
00:56:40.000 : en:Lies and deceit
01:00:56.000 : en:End Credits

Скриншоты

[filmgrad.ru].t150552.torrent 
Torrent: Registered [ 2020-09-27 06:08 ] · 90986E1611DF484127C23204BC56B50B5A5300E5

Download .torrent

Download

34 KB

Status: O temporary
Completed: 0 times
Size: 6.64 GB
Оценка:  - (Голосов: 0)
Поблагодарили: 0  Спасибо
terms.php
[Profile] [PM]
Display posts:    
Reply to topic

Current time is: 29-Sep 13:04

All times are UTC + 3



You cannot post new topics in this forum
You cannot reply to topics in this forum
You cannot edit your posts in this forum
You cannot delete your posts in this forum
You cannot vote in polls in this forum
You cannot attach files in this forum
You can download files in this forum