Капитан Голливуд (2019) WEBRip 1080p

Reply to topic
DL-List and Torrent activity
Size:  3.84 GB   |    Registered:  2 days 4 hours   |    Completed:  2 times
Seeders:  459  [  0 KB/s  ]   Leechers:  58  [  0 KB/s  ]   Show peers in full details
 
     
 
 
Author Message

dybrik13 ®

Gender: Male

Longevity: 1 year 6 months

Posts: 7448

Location: Киев

Post 01-Aug-2020 13:09

[Quote]

Капитан Голливуд- Название: Капитан Голливуд
Год выхода: 2019
Жанр: Детектив, драма
Страна: Россия
Перевод: Не требуется
Продолжительность: 01:40:09
Режиссер: Евгений Татаров
В ролях: Евгений Шириков, Антонина Дивина, Алексей Нестеренко, Владимир Роганов, Артём Мельничук, Анастасия Ярёменко, Алёна Козырева, Ольга Калмыкова, Юрий Пимкин, Эдуард Безродный и др.-Летом 1999 года в одном из городов на юге России происходит террористический акт – взрыв жилого дома. Расследование этого дела возглавляет оперативный сотрудник ФСБ – капитан Андрей Верещагин, по прозвищу «Капитан Голливуд».
Качество: WEBRip 1080p
Видео: MPEG-4 AVC, 1920x800, 5120 kbps, 25,000 fps
Звук: русский, AC3, 5.1 ch, 48 kHz, 384 kbps
Субтитры: нет

MI

Общее
Уникальный идентификатор : 225447062951201825370157862670418543459 (0xA99B86628BB01DF8AC3B94AC4ABF8363)
Полное имя : E:Torrent4KapitanGollivudWEBRip1080p.mkv
Формат : Matroska
Версия формата : Version 4 / Version 2
Размер файла : 3,84 Гбайт
Продолжительность : 1 ч. 40 м.
Общий поток : 5495 Кбит/сек
Дата кодирования : UTC 2020-07-31 22:31:43
Программа кодирования : mkvmerge v9.5.0 ('Quiet Fire') 64bit
Библиотека кодирования : libebml v1.3.4 + libmatroska v1.4.5
Видео
Идентификатор : 1
Формат : AVC
Формат/Информация : Advanced Video Codec
Профиль формата : High@L4
Настройки формата : CABAC / 4 Ref Frames
Параметр CABAC формата : Да
Параметр RefFrames формата : 4 кадра
Идентификатор кодека : V_MPEG4/ISO/AVC
Продолжительность : 1 ч. 40 м.
Битрейт : 5120 Кбит/сек
Ширина : 1920 пикселей
Высота : 800 пикселей
Соотношение сторон : 2,40:1
Режим частоты кадров : Постоянный
Частота кадров : 25,000 кадров/сек
Цветовое пространство : YUV
Субдискретизация насыщенности : 4:2:0
Битовая глубина : 8 бит
Тип развёртки : Прогрессивная
Бит/(Пиксели*Кадры) : 0.133
Размер потока : 3,57 Гбайт (93%)
Библиотека кодирования : x264 core 148
Настройки программы : cabac=1 / ref=3 / deblock=1:0:0 / analyse=0x3:0x113 / me=hex / subme=7 / psy=1 / psy_rd=1.00:0.00 / mixed_ref=1 / me_range=16 / chroma_me=1 / trellis=1 / 8x8dct=1 / cqm=0 / deadzone=21,11 / fast_pskip=1 / chroma_qp_offset=-2 / threads=25 / lookahead_threads=4 / sliced_threads=0 / nr=0 / decimate=1 / interlaced=0 / bluray_compat=0 / constrained_intra=0 / bframes=6 / b_pyramid=2 / b_adapt=1 / b_bias=0 / direct=1 / weightb=1 / open_gop=0 / weightp=2 / keyint=50 / keyint_min=26 / scenecut=0 / intra_refresh=0 / rc_lookahead=40 / rc=2pass / mbtree=1 / bitrate=5120 / ratetol=1.0 / qcomp=0.60 / qpmin=0 / qpmax=69 / qpstep=4 / cplxblur=20.0 / qblur=0.5 / vbv_maxrate=7680 / vbv_bufsize=20480 / nal_hrd=none / filler=0 / ip_ratio=1.40 / aq=1:1.00
Язык : Russian
Default : Да
Forced : Нет
Аудио
Идентификатор : 2
Формат : AC-3
Формат/Информация : Audio Coding 3
Параметр Endianness формата : Big
Идентификатор кодека : A_AC3
Продолжительность : 1 ч. 40 м.
Вид битрейта : Постоянный
Битрейт : 384 Кбит/сек
Каналы : 6 каналов
Расположение каналов : Front: L C R, Side: L R, LFE
Частота : 48,0 КГц
Частота кадров : 31,250 кадров/сек (1536 SPF)
Битовая глубина : 16 бит
Метод сжатия : С потерями
Размер потока : 275 Мбайт (7%)
Язык : Russian
Default : Да
Forced : Нет

Скриншоты


--Релиз группа: Filmgrad.Ru ->
[filmgrad.ru].t149843.torrent 
Torrent: Registered [ 2020-08-01 13:09 ] · 47239EF8DB67DD8AE2B4735A120A929A53EAC59A

Download .torrent

Download

20 KB

Status: checked
Completed: 2 times
Size: 3.84 GB
Оценка:  5 (Голосов: 1)
Поблагодарили: 0  Спасибо
terms.php
[Profile] [PM]
Display posts:    
Reply to topic

Current time is: 03-Aug 17:34

All times are UTC + 3



You cannot post new topics in this forum
You cannot reply to topics in this forum
You cannot edit your posts in this forum
You cannot delete your posts in this forum
You cannot vote in polls in this forum
You cannot attach files in this forum
You can download files in this forum