Наследие костей / Legado en los huesos / The Legacy of the Bones (2019) BDRip 1080p | L

Reply to topic
DL-List and Torrent activity
Size:  11.59 GB   |    Registered:  4 days   |    Completed:  0 times
Seeders:  279  [  0 KB/s  ]   Leechers:  47  [  0 KB/s  ]   Show peers in full details
 
     
 
 
Author Message

dybrik13 ®

Gender: Male

Longevity: 1 year 6 months

Posts: 7462

Location: Киев

Post 31-Jul-2020 20:06

[Quote]

Наследие костей / Legado en los huesos / The Legacy of the Bones- Оригинальное название: Legado en los huesos / The Legacy of the Bones
Год выхода: 2019
Жанр: Триллер, криминал
Режиссер: Фернандо Гонзалез Молина
В ролях: Марта Этура, Нене, Леонардо Сбаралья, Франсеск Орелья, Иманоль Ариас, Бенджамин Нортовер, Itziar Aizpuru, Патриция Лопез, Алисия Санчес, Eduardo Rosa-Действие разворачивается на территории автономного сообщества на севере Испании. Именно здесь год назад была совершена серия жутких преступлений, раскрытых инспектором Амайей Салазар. Сейчас героиня фильма находится на последнем месяце беременности и готовится к родам. Несмотря на это, Амайя не уходит в декретный отпуск, продолжая заниматься работой. В настоящее время женщина-инспектор занимается расследованием дела Джейсона Медины, обвиняемого в изнасиловании, нанесении увечий и убийстве Йоханы Маркес. Когда приближается суд, то преступника находят мёртвым. Проведенное расследование устанавливает, что Джейсон совершил самоубийство, оставив после себя записку с одним загадочным словом.
Страна: Испания, Германия
Студия: Atresmedia Cine, Nadcon Film
Продолжительность: 02:01:54
Перевод: Любительский многоголосый | @MUZOBOZ@
Кодек: MPEG-4 AVC
Качество: BDRip 1080p
Видео: 12200 3160 Кбит/с, 1920x800, 24.000 кадр/с
Звук:
Аудио #1: AC3, 48 Гц, 192 Кбит/сек, 2 ch (L + R) | MVO | @MUZOBOZ@
Аудио #2: AC3, 48 Гц, 640 Кбит/сек, 6 ch (L C R, + L R, LFE) | DUB | Французкий
Аудио #3: AC3, 48 Гц, 640 Кбит/сек, 6 ch (L C R, + L R, LFE) | Испанский
Субтитры: Pусские, английские, французкие

MI

Общее
Уникальный идентификатор : 161918589890862455822349349929774410840 (0x79D062D64B6E14A8CDFE623719FAEC58)
Полное имя : D:ТоррентыThe.Legacy.of.the.Bones.2019.MULTi.1080p.BluRay.x264.AC3-EXTREMENasledie.Costey.2019.x264.BDRip(1080p)-MediaBit.mkv
Формат : Matroska
Версия формата : Version 4
Размер файла : 11,6 Гбайт
Продолжительность : 2 ч. 1 м.
Общий поток : 13,6 Мбит/сек
Название фильма : Наследие костей / Legado en los huesos / The Legacy of the Bones (2019)
Дата кодирования : UTC 2020-07-30 20:41:29
Программа кодирования : mkvmerge v25.0.0 ('Prog Noir') 64-bit
Библиотека кодирования : libebml v1.3.6 + libmatroska v1.4.9
Attachments : 5-fADVUY_q4.jpg
Видео
Идентификатор : 1
Формат : AVC
Формат/Информация : Advanced Video Codec
Профиль формата : High@L4.1
Настройки формата : CABAC / 5 Ref Frames
Параметр CABAC формата : Да
Параметр RefFrames формата : 5 кадров
Идентификатор кодека : V_MPEG4/ISO/AVC
Продолжительность : 2 ч. 0 м.
Битрейт : 12,2 Мбит/сек
Ширина : 1 920 пикселей
Высота : 800 пикселей
Соотношение сторон : 2,40:1
Режим частоты кадров : Постоянный
Частота кадров : 24,000 кадра/сек
Цветовое пространство : YUV
Субдискретизация насыщенности : 4:2:0
Битовая глубина : 8 бит
Тип развёртки : Прогрессивная
Бит/(Пиксели*Кадры) : 0.332
Размер потока : 10,3 Гбайт (89%)
Заголовок : MediaBit
Библиотека кодирования : x264 core 157 r2969 d4099dd
Настройки программы : cabac=1 / ref=5 / deblock=1:-3:-3 / analyse=0x3:0x133 / me=umh / subme=10 / psy=1 / psy_rd=1.00:0.00 / mixed_ref=1 / me_range=32 / chroma_me=1 / trellis=2 / 8x8dct=1 / cqm=0 / deadzone=21,11 / fast_pskip=0 / chroma_qp_offset=-2 / threads=8 / lookahead_threads=1 / sliced_threads=0 / nr=0 / decimate=0 / interlaced=0 / bluray_compat=0 / constrained_intra=0 / bframes=8 / b_pyramid=2 / b_adapt=2 / b_bias=0 / direct=3 / weightb=1 / open_gop=0 / weightp=2 / keyint=240 / keyint_min=24 / scenecut=40 / intra_refresh=0 / rc_lookahead=60 / rc=2pass / mbtree=0 / bitrate=12249 / ratetol=1.0 / qcomp=0.60 / qpmin=0 / qpmax=69 / qpstep=4 / cplxblur=20.0 / qblur=0.5 / vbv_maxrate=62500 / vbv_bufsize=78125 / nal_hrd=none / filler=0 / ip_ratio=1.30 / pb_ratio=1.20 / aq=3:0.80
Язык : French
Default : Да
Forced : Нет
Цветовой диапазон : Limited
Основные цвета : BT.709
Характеристики трансфера : BT.709
Коэффициенты матрицы : BT.709
Аудио #1
Идентификатор : 2
Формат : AC-3
Формат/Информация : Audio Coding 3
Коммерческое название : Dolby Digital
Идентификатор кодека : A_AC3
Продолжительность : 2 ч. 1 м.
Вид битрейта : Постоянный
Битрейт : 192 Кбит/сек
Каналы : 2 канала
Channel layout : L R
Частота : 48,0 КГц
Частота кадров : 31,250 кадров/сек (1536 SPF)
Метод сжатия : С потерями
Размер потока : 167 Мбайт (1%)
Заголовок : MVO | @MUZOBOZ@ / MediaBit
Язык : Russian
Service kind : Complete Main
Default : Да
Forced : Нет
Аудио #2
Идентификатор : 3
Формат : AC-3
Формат/Информация : Audio Coding 3
Коммерческое название : Dolby Digital
Идентификатор кодека : A_EAC3
Продолжительность : 2 ч. 1 м.
Вид битрейта : Постоянный
Битрейт : 640 Кбит/сек
Каналы : 6 каналов
Channel layout : L R C LFE Ls Rs
Частота : 48,0 КГц
Частота кадров : 31,250 кадров/сек (1536 SPF)
Метод сжатия : С потерями
Размер потока : 557 Мбайт (5%)
Заголовок : DUB
Язык : French
Service kind : Complete Main
Default : Нет
Forced : Нет
Аудио #3
Идентификатор : 4
Формат : AC-3
Формат/Информация : Audio Coding 3
Коммерческое название : Dolby Digital
Идентификатор кодека : A_AC3
Продолжительность : 2 ч. 0 м.
Вид битрейта : Постоянный
Битрейт : 640 Кбит/сек
Каналы : 6 каналов
Channel layout : L R C LFE Ls Rs
Частота : 48,0 КГц
Частота кадров : 31,250 кадров/сек (1536 SPF)
Метод сжатия : С потерями
Размер потока : 554 Мбайт (5%)
Заголовок : Original
Язык : Spanish
Service kind : Complete Main
Default : Нет
Forced : Нет
Текст #1
Идентификатор : 5
Формат : UTF-8
Идентификатор кодека : S_TEXT/UTF8
Идентификатор кодека/Информация : UTF-8 Plain Text
Продолжительность : 2 ч. 0 м.
Битрейт : 84 бит/сек
Count of elements : 1625
Размер потока : 74,9 Кбайт (0%)
Заголовок : Russian
Язык : Russian
Default : Нет
Forced : Нет
Текст #2
Идентификатор : 6
Формат : UTF-8
Идентификатор кодека : S_TEXT/UTF8
Идентификатор кодека/Информация : UTF-8 Plain Text
Продолжительность : 1 ч. 55 м.
Битрейт : 54 бит/сек
Count of elements : 1308
Размер потока : 46,3 Кбайт (0%)
Заголовок : English
Язык : English
Default : Нет
Forced : Нет
Текст #3
Идентификатор : 7
Формат : UTF-8
Идентификатор кодека : S_TEXT/UTF8
Идентификатор кодека/Информация : UTF-8 Plain Text
Продолжительность : 1 ч. 56 м.
Битрейт : 4 бит/сек
Count of elements : 127
Размер потока : 3,64 Кбайт (0%)
Заголовок : Forced
Язык : French
Default : Нет
Forced : Нет
Текст #4
Идентификатор : 8
Формат : UTF-8
Идентификатор кодека : S_TEXT/UTF8
Идентификатор кодека/Информация : UTF-8 Plain Text
Продолжительность : 1 ч. 59 м.
Битрейт : 53 бит/сек
Count of elements : 1417
Размер потока : 46,7 Кбайт (0%)
Заголовок : French
Язык : French
Default : Нет
Forced : Нет
Меню
00:00:00.000 : en:00:00:00.000
00:06:41.583 : en:00:06:41.583
00:17:55.458 : en:00:17:55.458
00:30:15.667 : en:00:30:15.667
00:49:04.292 : en:00:49:04.292
00:57:31.750 : en:00:57:31.750
01:08:48.958 : en:01:08:48.958
01:18:56.000 : en:01:18:56.000
01:27:01.500 : en:01:27:01.500
01:38:13.000 : en:01:38:13.000

Скриншоты

--Релиз группа: Filmgrad.Ru ->
[filmgrad.ru].t149805.torrent 
Torrent: Registered [ 2020-07-31 20:06 ] · 7A2DEAA6FD11E0688CFA1CBB444EA42F2F3FB410

Download .torrent

Download

32 KB

Status: checked
Completed: 0 times
Size: 11.59 GB
Оценка:  5 (Голосов: 1)
Поблагодарили: 0  Спасибо
terms.php
[Profile] [PM]
Display posts:    
Reply to topic

Current time is: 04-Aug 22:14

All times are UTC + 3



You cannot post new topics in this forum
You cannot reply to topics in this forum
You cannot edit your posts in this forum
You cannot delete your posts in this forum
You cannot vote in polls in this forum
You cannot attach files in this forum
You can download files in this forum