Девяностые (2016-2020) DVB

Reply to topic
DL-List and Torrent activity
Size:  41.39 GB   |    Registered:  3 days   |    Completed:  0 times
Seeders:  20  [  0 KB/s  ]   Leechers:  22  [  0 KB/s  ]   Show peers in full details
 
     
 
 
Author Message

dybrik13 ®

Gender: Male

Longevity: 1 year 6 months

Posts: 7451

Location: Киев

Post 31-Jul-2020 15:35

[Quote]

Девяностые- Название: Девяностые
Год выхода: 2016-2020
Жанр: Документальный, История
Режиссер: не известно
В ролях: н/и-90-е годы называют лихими и огромным испытанием для каждого жителя России. Это время, когда на руинах разрушенного Советского Союза строилась новая страна – с новыми порядками и новыми героями. "90-е" – это документальный фильм-расследование. Публицистический цикл рассказывает о самых значимых явлениях в жизни общества того времени, о том, что помнит каждый зритель канала "ТВ Центр": зарождение класса "новых русских", приватизация, чеченские войны, конкурсы красоты, "Аум Синрикё", "Хопёр-Инвест", криминальные войны, заказные убийства, "шоковая терапия", яркие герои народившегося шоу-бизнеса, самые громкие скандалы десятилетия… Это было очень интересное время! Каждая серия цикла – это частные истории на фоне значимых политических событий, объясняющие природу многих современных общественных проблем. В каждом выпуске использованы интервью участников тех или иных событий и других свидетелей эпохи, уникальные архивные кадры, постановочные съёмки и современная графика.
Страна: Россия
Студия: Россия, ТВ Центр
Продолжительность: ~00:41:00
Перевод: нет
Кодек: H.264
Качество: DVB
Видео: AVC/H.264 720х576@1024x576, ~2663 Mbps
Звук: MP2, 2 ch, 192 kbps

список серий:

1 90-е_Короли шансона_2018.ts
2 90-е_Безработные звёзды.ts
3 90-е_Бог простит.ts
4 90-е_Бомба для_афганцев.ts
5 90-е_В шумном зале ресторана.ts
6 90-е_Вашингтонский обком.ts
7 90-е_Весёлая политика.ts
8 90-е_Во всём виноват Чубайс.ts
9 90-е_Водка..ts
10 90-е_Врачи-убийцы_2016.ts
11 90-е_Выпить и закусить.ts
12 90-е_Голые Золушки.ts
13 90-е_Горько!.ts
14 90-е_Граждане барыги.ts
15 90-е_Звездное достоинство_2020.ts
16 90-е_Звёзды на час.ts
17 90-е_Золото партии.ts
18 90-е_Квартирный вопрос.ts
19 90-е_Королевы красоты.ts
20 90-е_БАБ_начало конца.ts
21 90-е_Кремлёвские жёны.ts
22 90-е_Крестные отцы.ts
23 90-е_Криминальные жены.ts
24 90-е_Кровавый Тольятти.ts
25 90-е_Лебединая песня.ts
26 90-е_Ликвидация шайтанов.ts
27 90-е_Лонго против Грабового.ts
28 90-е_Лужа и Черкизон.ts
29 90-е_Люди гибнут за металл_2019.ts
30 90-е_Люди из_ящика.ts
31 90-е_Малиновый пиджак.ts
32 90-е_Мобила_2020.ts
33 90-е_Наркота.ts
34 90-е_Папы Карло шоу-бизнеса.ts
35 90-е_Поющие трусы.ts
36 90-е_Преданная и проданная.ts
37 90-е_Профессия_киллер.ts
38 90-е_Пудель с мандатом.ts
39 90-е_С Новой Россией.ts
40 90-е_Секс без перерыва.ts
41 90-е_Сердце Ельцина_2016.ts
42 90-е_Сладкие мальчики.ts
43 90-е_Смертельный хип-хоп.ts
44 90-е_Сумасшедший бизнес.ts
45 90-е_Тачка_2020.ts
46 90-е_Уроки пластики.ts
47 90-е_Чумак против Кашпировского.ts
48 90-е_Чёрный юмор.ts
49 90-е_Шуба.ts

Mediainfo:

Общее
Идентификатор : 16 (0x10)
Полное имя : 90-е_Ликвидация шайтанов.ts
Формат : MPEG-TS
Размер файла : 859 Мбайт
Продолжительность : 39 м. 57 с.
Режим общего битрейта : Переменный
Общий поток : 3005 Кбит/сек
Видео
Идентификатор : 1101 (0x44D)
Идентификатор меню : 1100 (0x44C)
Формат : AVC
Формат/Информация : Advanced Video Codec
Профиль формата : Main@L3
Настройки формата : CABAC / 4 Ref Frames
Параметр CABAC формата : Да
Параметр RefFrames формата : 4 кадра
Идентификатор кодека : 27
Продолжительность : 39 м. 57 с.
Битрейт : 2663 Кбит/сек
Ширина : 720 пикселей
Высота : 576 пикселей
Соотношение сторон : 16:9
Частота кадров : 25,000 кадров/сек
Стандарт вещания : PAL
Цветовое пространство : YUV
Субдискретизация насыщенности : 4:2:0
Битовая глубина : 8 бит
Тип развёртки : Чересстрочная
Метод сохранения типа развёртки : Раздельные поля
Порядок развёртки : Верхнее поле первое
Бит/(Пиксели*Кадры) : 0.257
Размер потока : 761 Мбайт (89%)
Цветовой диапазон : Limited
Основные цвета : BT.601 PAL
Характеристики трансфера : BT.470 System B, BT.470 System G
Коэффициенты матрицы : BT.470 System B, BT.470 System G
Аудио
Идентификатор : 1102 (0x44E)
Идентификатор меню : 1100 (0x44C)
Формат : MPEG Audio
Версия формата : Version 1
Профиль формата : Layer 2
Идентификатор кодека : 4
Продолжительность : 39 м. 57 с.
Вид битрейта : Постоянный
Битрейт : 192 Кбит/сек
Каналы : 2 канала
Частота : 48,0 КГц
Метод сжатия : С потерями
Задержка видео : 118 мс.
Размер потока : 54,9 Мбайт (6%)
Язык : std
Язык, дополнительно : Clean effects
Прочее #1
Идентификатор : 1104 (0x450)-100
Идентификатор меню : 1100 (0x44C)
Формат : Teletext
Прочее #2
Идентификатор : 1104 (0x450)-888
Идентификатор меню : 1100 (0x44C)
Формат : Teletext
Язык, дополнительно : Additional information page

Скриншоты

--Релиз группа: Filmgrad.Ru ->
[filmgrad.ru].t149798.torrent 
Torrent: Registered [ 2020-07-31 15:35 ] · F7E13608F0EB88A7905CCD0666E51590401CAC77

Download .torrent

Download

212 KB

Status: checked
Completed: 0 times
Size: 41.39 GB
Оценка:  5 (Голосов: 1)
Поблагодарили: 0  Спасибо
terms.php
[Profile] [PM]
Display posts:    
Reply to topic

Current time is: 03-Aug 18:46

All times are UTC + 3



You cannot post new topics in this forum
You cannot reply to topics in this forum
You cannot edit your posts in this forum
You cannot delete your posts in this forum
You cannot vote in polls in this forum
You cannot attach files in this forum
You can download files in this forum