#выжить / #saraitta / Alive (2020) WEB-DLRip [H.264/720p-LQ]

Reply to topic
DL-List and Torrent activity
Size:  3.9 GB   |    Registered:  10 days   |    Completed:  0 times
Seeders:  1  [  0 KB/s  ]   Leechers:  4  [  0 KB/s  ]   Show peers in full details
 
     
 
 
Author Message

dybrik13 ®

Gender: Male

Longevity: 1 year 6 months

Posts: 7556

Location: Киев

Post 31-Jul-2020 15:20

[Quote]

#выжить / #saraitta / Alive- Производство: Корея Южная / Zip Cinema, Perspective Pictures
Жанр: Ужасы, боевик
Режиссер: Чо Иль-хён
Актеры: Ю А-ин, Пак Щин-хе, Чон Бэ-су, Ли Хён-ук, О Хе-вон, Ким Хак-сон, Со Хи-джон, Чу Бо-би, Чон Ун-джон, Ли Чхэ-гён-Молодой человек оказываются в ловушке в жилом комплексе, когда вокруг происходит прорыв зомбивирусной инфекции. Через некоторое время он замечает, что в доме напротив так же как и он прячется девушка.
Дата мировой премьеры: 24 июня 2020
Продолжительность: 01:36:40
Качество видео: WEB-DLRip
Перевод: Многоголосый закадровый, любительский (КОЛОБОК)
Субтитры: отсутствуют
Видео: AVC/H.264, 1280x536, ~5272 Kbps
Аудио: AC-3, 2 ch, 384 Kbps

MediaInfo:

Общее
Полное имя : D:\NNM\Выжить\Alive.2020.WEB-DLRip.720p-LQ.mkv
Формат : Matroska
Версия формата : Version 2
Размер файла : 3,90 Гбайт
Продолжительность : 1 ч. 36 м.
Режим общего битрейта : Переменный
Общий поток : 5771 Кбит/сек
Программа кодирования : libmatroska 1.4.1
Библиотека кодирования : SolveigMM Matroska Muxer Version 1.0.1904.23
Видео
Идентификатор : 1
Формат : AVC
Формат/Информация : Advanced Video Codec
Профиль формата : High@L4.1
Настройки формата : CABAC / 4 Ref Frames
Параметр CABAC формата : Да
Параметр RefFrames формата : 4 кадра
Идентификатор кодека : V_MPEG4/ISO/AVC
Продолжительность : 1 ч. 36 м.
Вид битрейта : Переменный
Битрейт : 5272 Кбит/сек
Максимальный битрейт : 6000 Кбит/сек
Ширина : 1280 пикселей
Высота : 536 пикселей
Соотношение сторон : 2,40:1
Режим частоты кадров : Постоянный
Частота кадров : 23,976 (24000/1001) кадра/сек
Стандарт вещания : Component
Цветовое пространство : YUV
Субдискретизация насыщенности : 4:2:0
Битовая глубина : 8 бит
Тип развёртки : Прогрессивная
Бит/(Пиксели*Кадры) : 0.320
Размер потока : 3,56 Гбайт (91%)
Default : Нет
Forced : Нет
Цветовой диапазон : Limited
Основные цвета : BT.709
Характеристики трансфера : BT.709
Коэффициенты матрицы : BT.709
Аудио
Идентификатор : 2
Формат : AC-3
Формат/Информация : Audio Coding 3
Коммерческое название : Dolby Digital
Идентификатор кодека : A_AC3
Продолжительность : 1 ч. 36 м.
Вид битрейта : Постоянный
Битрейт : 384 Кбит/сек
Каналы : 2 канала
ChannelLayout : L R
Частота : 48,0 КГц
Частота кадров : 31,250 кадров/сек (1536 SPF)
Метод сжатия : С потерями
Размер потока : 266 Мбайт (7%)
Язык : Russian
ServiceKind/String : Complete Main
Default : Нет
Forced : Нет
Скриншоты:
--Релиз группа: Filmgrad.Ru ->
[filmgrad.ru].t149797.torrent 
Torrent: Registered [ 2020-07-31 15:20 ] · D2607E0CC5DCAB8A2294549929743DE881721FA5

Download .torrent

Download

20 KB

Status: checked
Completed: 0 times
Size: 3.9 GB
Оценка:  5 (Голосов: 1)
Поблагодарили: 0  Спасибо
terms.php
[Profile] [PM]
Display posts:    
Reply to topic

Current time is: 11-Aug 06:35

All times are UTC + 3



You cannot post new topics in this forum
You cannot reply to topics in this forum
You cannot edit your posts in this forum
You cannot delete your posts in this forum
You cannot vote in polls in this forum
You cannot attach files in this forum
You can download files in this forum