Незваный гость / Chimipja (2020) WEB-DL [H.264/1080p-LQ]

Reply to topic
DL-List and Torrent activity
Size:  3.81 GB   |    Registered:  11 days   |    Completed:  0 times

Seeder not seen: Never

Leechers:  32  [  0 KB/s  ]   Show peers in full details
 
     
 
 
Author Message

dybrik13 ®

Gender: Male

Longevity: 1 year 6 months

Posts: 7556

Location: Киев

Post 30-Jul-2020 07:38

[Quote]

Незваный гость / Chimipja- Производство: Корея Южная, B. A. Entertainment
Жанр: Триллер, детектив
Режиссер: Сон Вон-пхён
Продюсер: Чан Вон-сок, Пак Кён-вон
Актеры: Ким Му-ёль, Сон Джи-хё, Е Су-джон, Чхве Сан-хун, Пак Мин-ха, Хо Джун-сок, Со Хи-джон, Лим Сон-у, Чхве Ён-у, Ким Сын-би-Молодой архитектор Со-джин уже полгода не может оправиться от гибели жены. Он живёт в большом доме родителей, страдает от посттравматического синдрома и с трудом общается с маленькой дочерью. Внезапно Со-джину звонят из детского приюта и сообщают, что нашлась его младшая сестра Ю-джин, которую он больше 20 лет назад потерял в парке развлечений. Родители радостно принимают новообретённую дочь, и та окружает их заботой, но Со-джину сестрица кажется очень подозрительной.
Премьера в мире: 4 июня 2020, ...
Премьера в Росcии: 6 августа 2020, «ПРОвзгляд»
Цифровой релиз: 30 июля 2020, «Веста»
Продолжительность: 01:42:07
Качество видео: WEB-DL
Перевод: Дублированный (iTunes)
Субтитры: Русские (Full)
Видео: AVC/H.264, 1920x804, ~4567 kbps
Аудио 1: AC3, 6 ch, 384 Kbps - Русский
Аудио 2: AC3, 6 ch, 384 Kbps - Корейский

MediaInfo:

Общее
Уникальный идентификатор : 211826287562845368031300435648970432145 (0x9F5C424F4D8C382289E9CCF64EDB1E91)
Полное имя : F:\Nezvanyiy.gost.2020.WEB-DL.1080p.ELEKTRI4KA.UNIONGANG.mkv
Формат : Matroska
Версия формата : Version 4
Размер файла : 3,81 Гбайт
Продолжительность : 1 ч. 42 м.
Общий поток : 5337 Кбит/сек
Название фильма : .ELEKTRI4KA.UNIONGANG.
Дата кодирования : UTC 2020-07-29 18:27:52
Программа кодирования : mkvmerge v8.3.0 ('Over the Horizon') 64bit
Библиотека кодирования : libebml v1.3.1 + libmatroska v1.4.2
Видео
Идентификатор : 1
Формат : AVC
Формат/Информация : Advanced Video Codec
Профиль формата : High@L4
Настройки формата : CABAC / 5 Ref Frames
Параметр CABAC формата : Да
Параметр RefFrames формата : 5 кадров
Идентификатор кодека : V_MPEG4/ISO/AVC
Продолжительность : 1 ч. 42 м.
Битрейт : 4567 Кбит/сек
Ширина : 1920 пикселей
Высота : 804 пикселя
Соотношение сторон : 2,40:1
Режим частоты кадров : Постоянный
Частота кадров : 24,000 кадра/сек
Цветовое пространство : YUV
Субдискретизация насыщенности : 4:2:0
Битовая глубина : 8 бит
Тип развёртки : Прогрессивная
Бит/(Пиксели*Кадры) : 0.123
Размер потока : 3,26 Гбайт (86%)
Заголовок : .ELEKTRI4KA.UNIONGANG.
Язык : English
Default : Да
Forced : Нет
Цветовой диапазон : Limited
Основные цвета : BT.709
Характеристики трансфера : BT.709
Коэффициенты матрицы : BT.709
Аудио #1
Идентификатор : 2
Формат : AC-3
Формат/Информация : Audio Coding 3
Коммерческое название : Dolby Digital
Идентификатор кодека : A_AC3
Продолжительность : 1 ч. 42 м.
Вид битрейта : Постоянный
Битрейт : 384 Кбит/сек
Каналы : 6 каналов
ChannelLayout : L R C LFE Ls Rs
Частота : 48,0 КГц
Частота кадров : 31,250 кадров/сек (1536 SPF)
Битовая глубина : 16 бит
Метод сжатия : С потерями
Размер потока : 281 Мбайт (7%)
Заголовок : iTunes
Язык : Russian
ServiceKind/String : Complete Main
Default : Да
Forced : Нет
Аудио #2
Идентификатор : 3
Формат : AC-3
Формат/Информация : Audio Coding 3
Коммерческое название : Dolby Digital
Идентификатор кодека : A_AC3
Продолжительность : 1 ч. 42 м.
Вид битрейта : Постоянный
Битрейт : 384 Кбит/сек
Каналы : 6 каналов
ChannelLayout : L R C LFE Ls Rs
Частота : 48,0 КГц
Частота кадров : 31,250 кадров/сек (1536 SPF)
Битовая глубина : 16 бит
Метод сжатия : С потерями
Размер потока : 281 Мбайт (7%)
Заголовок : iTunes
Язык : Korean
ServiceKind/String : Complete Main
Default : Нет
Forced : Нет
Текст
Идентификатор : 4
Формат : UTF-8
Идентификатор кодека : S_TEXT/UTF8
Идентификатор кодека/Информация : UTF-8 Plain Text
Продолжительность : 1 ч. 37 м.
Битрейт : 82 бит/сек
ElementCount : 1224
Размер потока : 59,4 Кбайт (0%)
Заголовок : full-length iTunes
Язык : Russian
Default : Да
Forced : Нет
Меню
00:00:00.000 : en:Глава 1
00:08:10.541 : en:Глава 2
00:15:44.124 : en:Глава 3
00:24:08.332 : en:Глава 4
00:29:34.415 : en:Глава 5
00:35:57.123 : en:Глава 6
00:42:38.831 : en:Глава 7
00:50:10.372 : en:Глава 8
00:56:39.997 : en:Глава 9
01:03:37.830 : en:Глава 10
01:09:30.746 : en:Глава 11
01:16:17.246 : en:Глава 12
01:24:43.871 : en:Глава 13
01:33:00.412 : en:Глава 14
Скриншоты:
--Релиз группа: Filmgrad.Ru ->
[filmgrad.ru].t149783.torrent 
Torrent: Registered [ 2020-07-30 07:38 ] · 8D7DA8770691BD4ABB2270DE068AF825AFB7C39C

Download .torrent

Download

20 KB

Status: checked
Completed: 0 times
Size: 3.81 GB
Оценка:  5 (Голосов: 1)
Поблагодарили: 0  Спасибо
terms.php
[Profile] [PM]
Display posts:    
Reply to topic

Current time is: 11-Aug 07:24

All times are UTC + 3



You cannot post new topics in this forum
You cannot reply to topics in this forum
You cannot edit your posts in this forum
You cannot delete your posts in this forum
You cannot vote in polls in this forum
You cannot attach files in this forum
You can download files in this forum