Честный кандидат / Irresistible (2020) WEB-DL 1080p | HDRezka Studio

Reply to topic
DL-List and Torrent activity
Size:  7.29 GB   |    Registered:  5 days   |    Completed:  0 times
Seeders:  103  [  0 KB/s  ]   Leechers:  11  [  0 KB/s  ]   Show peers in full details
 
     
 
 
Author Message

dybrik13 ®

Gender: Male

Longevity: 1 year 6 months

Posts: 7461

Location: Киев

Post 29-Jul-2020 19:56

[Quote]

Честный кандидат / Irresistible- Оригинальное название: Irresistible
Год выхода: 2020
Жанр: Драма, комедия
Режиссер: Джон Стюарт
В ролях: Стив Карелл, Роуз Бирн, Крис Купер, Брент Секстон, Уилл Сассо, С.Дж. Уилсон, Том Ки, Алан Айсинберг, Тофер Грейс-Политика – сложная и грязная сфера, в которую хочет попасть далеко не каждый человек. И даже если вы стали ее частью, то не факт, что вы продержитесь здесь долгое время. Очень многие люди не выдерживают и ломаются, не справившись с постоянным стрессом и огромной конкуренцией. Только самые выносливые, хитрые и расчетливые люди могут добиться на этом поприще больших высот. Но крайне мало просто написать свою фамилию в списке кандидатов. Для победы предстоит проделать огромную работу и сделать все возможное, чтобы ваша предвыборная программа имела успех у избирателей. В одиночку справиться с такой задачей невозможно, поэтому кандидаты обращаются за помощью к профессионалам. Очередным клиентом такой команды становится бывший военный…
Страна: США
Студия: Busboy Productions, Plan B Entertainment
Продолжительность: 01:42:00
Перевод: Профессиональный многоголосый | HDRezka Studio
Кодек: MPEG-4 AVC
Качество: WEB-DL 1080p
Видео: 9139 Кбит/с, 1792x1080, 23.976 кадр/с
Звук:
Аудио #1: AC3, 48 Гц, 448 Кбит/сек, 6 ch (L C R, + L R, LFE) | Русский
Аудио #3: AC3, 48 Гц, 640 Кбит/сек, 6 ch (L C R, + L R, LFE) | Английский
Субтитры: Английские

MI

Общее
Уникальный идентификатор : 268656713653079885561413901308868994974 (0xCA1D66A53795F91DFB5B5E454F78A79E)
Полное имя : D:2020 рипыПроклятый лесЧестный кандидат 1080Cestnyi.kandidat.2020.x264.WEB-DL(1080p)-MediaBit.mkv
Формат : Matroska
Версия формата : Version 4
Размер файла : 7,29 Гбайт
Продолжительность : 1 ч. 42 м.
Общий поток : 10,2 Мбит/сек
Название фильма : Честный кандидат / Irresistible (2020)
Дата кодирования : UTC 2020-07-29 15:01:10
Программа кодирования : mkvmerge v25.0.0 ('Prog Noir') 64-bit
Библиотека кодирования : libebml v1.3.6 + libmatroska v1.4.9
Видео
Идентификатор : 1
Формат : AVC
Формат/Информация : Advanced Video Codec
Профиль формата : High@L4
Настройки формата : CABAC / 4 Ref Frames
Параметр CABAC формата : Да
Параметр RefFrames формата : 4 кадра
Идентификатор кодека : V_MPEG4/ISO/AVC
Продолжительность : 1 ч. 42 м.
Вид битрейта : Постоянный
Битрейт : 9 139 Кбит/сек
Номинальный битрейт : 10 000 Кбит/сек
Ширина : 1 792 пикселя
Высота : 1 080 пикселей
Соотношение сторон : 5:3
Режим частоты кадров : Постоянный
Частота кадров : 23,976 (24000/1001) кадра/сек
Цветовое пространство : YUV
Субдискретизация насыщенности : 4:2:0
Битовая глубина : 8 бит
Тип развёртки : Прогрессивная
Бит/(Пиксели*Кадры) : 0.197
Размер потока : 6,51 Гбайт (89%)
Заголовок : MediaBit
Язык : English
Default : Да
Forced : Нет
Цветовой диапазон : Limited
Основные цвета : BT.709
Характеристики трансфера : BT.709
Коэффициенты матрицы : BT.709
Аудио #1
Идентификатор : 2
Формат : AC-3
Формат/Информация : Audio Coding 3
Коммерческое название : Dolby Digital
Идентификатор кодека : A_AC3
Продолжительность : 1 ч. 42 м.
Вид битрейта : Постоянный
Битрейт : 448 Кбит/сек
Каналы : 6 каналов
Channel layout : L R C LFE Ls Rs
Частота : 48,0 КГц
Частота кадров : 31,250 кадров/сек (1536 SPF)
Метод сжатия : С потерями
Размер потока : 327 Мбайт (4%)
Заголовок : MVO | HDRezka Studio
Язык : Russian
Service kind : Complete Main
Default : Да
Forced : Нет
Аудио #2
Идентификатор : 3
Формат : AC-3
Формат/Информация : Audio Coding 3
Коммерческое название : Dolby Digital
Идентификатор кодека : A_AC3
Продолжительность : 1 ч. 42 м.
Вид битрейта : Постоянный
Битрейт : 640 Кбит/сек
Каналы : 6 каналов
Channel layout : L R C LFE Ls Rs
Частота : 48,0 КГц
Частота кадров : 31,250 кадров/сек (1536 SPF)
Метод сжатия : С потерями
Размер потока : 467 Мбайт (6%)
Заголовок : Original
Язык : English
Service kind : Complete Main
Default : Нет
Forced : Нет
Текст #1
Идентификатор : 4
Формат : UTF-8
Идентификатор кодека : S_TEXT/UTF8
Идентификатор кодека/Информация : UTF-8 Plain Text
Продолжительность : 1 ч. 41 м.
Битрейт : 99 бит/сек
Count of elements : 2376
Размер потока : 74,0 Кбайт (0%)
Язык : English
Default : Нет
Forced : Нет
Текст #2
Идентификатор : 5
Формат : UTF-8
Идентификатор кодека : S_TEXT/UTF8
Идентификатор кодека/Информация : UTF-8 Plain Text
Продолжительность : 1 ч. 41 м.
Битрейт : 99 бит/сек
Count of elements : 2392
Размер потока : 74,0 Кбайт (0%)
Заголовок : SDH
Язык : English
Default : Нет
Forced : Нет
Меню
00:00:00.000 : :Глава 1
00:05:52.352 : :Глава 2
00:11:46.706 : :Глава 3
00:18:17.096 : :Глава 4
00:24:59.498 : :Глава 5
00:32:17.936 : :Глава 6
00:39:12.350 : :Глава 7
00:46:42.800 : :Глава 8
00:54:27.264 : :Глава 9
01:02:45.762 : :Глава 10
01:11:30.286 : :Глава 11
01:19:38.774 : :Глава 12
01:27:33.248 : :Глава 13
01:35:29.724 : :Глава 14

Скриншоты

--Релиз группа: Filmgrad.Ru ->
[filmgrad.ru].t149780.torrent 
Torrent: Registered [ 2020-07-29 19:56 ] · 79E0CB387F4C1EF43F05AA48F05F018AD0553E79

Download .torrent

Download

22 KB

Status: checked
Completed: 0 times
Size: 7.29 GB
Оценка:  5 (Голосов: 1)
Поблагодарили: 0  Спасибо
terms.php
[Profile] [PM]
Display posts:    
Reply to topic

Current time is: 04-Aug 19:44

All times are UTC + 3



You cannot post new topics in this forum
You cannot reply to topics in this forum
You cannot edit your posts in this forum
You cannot delete your posts in this forum
You cannot vote in polls in this forum
You cannot attach files in this forum
You can download files in this forum