Вудсток: Три дня, изменившие поколение / Woodstock (2019) WEB-DLRip

Reply to topic
DL-List and Torrent activity
Size:  1.46 GB   |    Registered:  4 days   |    Completed:  0 times
Seeders:  117  [  0 KB/s  ]   Leechers:  9  [  0 KB/s  ]   Show peers in full details
 
     
 
 
Author Message

dybrik13 ®

Gender: Male

Longevity: 1 year 6 months

Posts: 7448

Location: Киев

Post 29-Jul-2020 19:50

[Quote]

Вудсток: Три дня, изменившие поколение / Woodstock- Производство: США, American Experience, PBS, Ark Media
Жанр: Документальный, история, искусство
Режиссер: Барак Гудман, Джеймила Эфрон
Участники: Джоан Баез, Джон Робертс, Джоэл Розенман, Стефен Стиллз, Макс Ясгур, Билл Грэхэм, Джо Кокер, Джими Хендрикс, Генри Дилц, Киф Харли, Роберт Ф. Кеннеди, Джоэл Маковер, Боб Спитц, Майкл Лэнг, Баффало Спрингфилд, Дональд Гольдмахер, Мел Лоуренс, Джон Моррис, Дэвид Кросби, Ричи Хевенс, Джон Джабулян, Хью Ромни, Уэйви Грэйви-1969 год. Америка, Бетел. Здесь в августе состоялся самый грандиозный рок-фестиваль, навсегда изменивший общество и освободивший западную музыку. Собрав под открытым небом около полумиллиона человек, организаторы даже и не думали, что именно это событие станет началом сексуальной революции, которая впоследствии захватит все сословия и классы людей. Фильм, приуроченный к 50-летию грандиозного музыкального праздника, снял номинант на премию «Оскар» Барак Гудман, опираясь на уникальные архивные материалы и личные истории очевидцев событий.
Продолжительность: 01:35:19
Качество видео: WEB-DLRip
Перевод: Многоголосый закадровый, профессиональный
Субтитры: отсутствуют
Видео: XviD, 720x400, ~1989 Kbps
Аудио: AC3, 2 ch, 192 Kbps

Mediainfo:

Общее
Полное имя : F:\КИНО\Woodstock.2019.WEBDLRip-ylnian.avi
Формат : AVI
Формат/Информация : Audio Video Interleave
Размер файла : 1,46 Гбайт
Продолжительность : 1 ч. 35 м.
Общий поток : 2 191 Кбит/сек
Программа кодирования : VirtualDubMod 1.5.10.3 | www.virtualdub-fr.org || (build 2550/release)
Библиотека кодирования : VirtualDubMod build 2550/release
Видео
Идентификатор : 0
Формат : MPEG-4 Visual
Профиль формата : Advanced Simple@L5
Настройки формата : BVOP1 / Custom Matrix
Параметр BVOP формата : 1
Параметр QPel формата : Нет
Параметр GMC формата : Без точки перехода
Параметр матрицы формата : Выборочная
Идентификатор кодека : XVID
Идентификатор кодека/Подсказка : XviD
Продолжительность : 1 ч. 35 м.
Битрейт : 1 989 Кбит/сек
Ширина : 720 пикселей
Высота : 400 пикселей
Соотношение сторон : 16:9
Частота кадров : 25,000 кадров/сек
Цветовое пространство : YUV
Субдискретизация насыщенности : 4:2:0
Битовая глубина : 8 бит
Тип развёртки : Прогрессивная
Метод сжатия : С потерями
Бит/(Пиксели*Кадры) : 0.276
Размер потока : 1,32 Гбайт (91%)
Библиотека кодирования : XviD 67
Аудио
Идентификатор : 1
Формат : AC-3
Формат/Информация : Audio Coding 3
Коммерческое название : Dolby Digital
Идентификатор кодека : 2000
Продолжительность : 1 ч. 35 м.
Вид битрейта : Постоянный
Битрейт : 192 Кбит/сек
Каналы : 2 канала
Channel layout : L R
Частота : 48,0 КГц
Частота кадров : 31,250 кадров/сек (1536 SPF)
Метод сжатия : С потерями
Размер потока : 131 Мбайт (9%)
Выравнивание : Разделение по промежуткам
Продолжительность промежутка : 40 мс. (1,00 видеокадр)
Время предзагрузки промежутка : 500 мс.
Service kind : Complete Main
Скриншоты:

Дополнительные скриншоты:

--Релиз группа: Filmgrad.Ru ->
[filmgrad.ru].t149778.torrent 
 GOLD TORRENT! DOWNLOAD TRAFFIC DOES NOT CONSIDER! 
Torrent: Registered [ 2020-07-29 19:50 ] · 1AA6E37596B28DD5C476A077300565C5AF1E1061

Download .torrent

Download

16 KB

Status: checked
Completed: 0 times
Size: 1.46 GB
Оценка:  5 (Голосов: 1)
Поблагодарили: 0  Спасибо
terms.php
[Profile] [PM]
Display posts:    
Reply to topic

Current time is: 03-Aug 17:32

All times are UTC + 3



You cannot post new topics in this forum
You cannot reply to topics in this forum
You cannot edit your posts in this forum
You cannot delete your posts in this forum
You cannot vote in polls in this forum
You cannot attach files in this forum
You can download files in this forum