Амулет / Amulet (2020) WEB-DL [H.264/1080p]

Reply to topic
DL-List and Torrent activity
Size:  7.21 GB   |    Registered:  5 days   |    Completed:  0 times
Seeders:  43  [  0 KB/s  ]   Leechers:  15  [  0 KB/s  ]   Show peers in full details
 
     
 
 
Author Message

dybrik13 ®

Gender: Male

Longevity: 1 year 6 months

Posts: 7451

Location: Киев

Post 29-Jul-2020 17:39

[Quote]

Амулет / Amulet- Производство: Великобритания, ОАЭ / Head Gear Films, Kreo Films FZ
Жанр: Ужасы
Режиссер: Ромола Гарай
Актеры: Алек Секаряну, Имелда Стонтон, Карла Юри, Аггелики Папоулья, Пол О’Келли, Том Беннетт, Жаклин Робертс, Перри Жакс-Бывшему военному с посттравматическим синдромом по имени Томас некуда податься, поэтому приходится бомжевать в Лондоне. Однажды он получает предложение пожить в отдаленном особняке в компании молодой женщины и её смертельно больной матери. Томас помогает с ремонтом дома, постепенно влюбляется в молодую хозяйку, и ему всё больше кажется, что тут творится что-то зловещее, кроме того, мужчина теряет ощущение реальности.
Возраст: 18+ (зрителям, достигшим 18 лет. запрещено для детей)
Рейтинг MPAA: R (лицам до 17 лет обязательно присутствие взрослого)
Дата мировой премьеры: 26 января 2020
Дата российской премьеры: Неизвестна
Продолжительность: 01:39:32
Качество видео: WEB-DL
Перевод: Двуголосый любительский
Субтитры: Русские, Английские
Видео: AVC/H.264, 1920x960, ~9091 Kbps
Аудио 1: AC3, 6 ch, 640 Kbps - Русский (DVO, Mallorn Studio)
Аудио 2: E-AC3, 6 ch, 640 Kbps - Английский

MediaInfo:

Общее
Уникальный идентификатор : 294031676155089342885203841740190715911 (0xDD3470E3721843861B43C70919EB1007)
Полное имя : D:\Проекты\PlagueStudios\JOB\Amulet\Amulet.2020.1080p.AVC.WEB-DL_Mallorn.mkv
Формат : Matroska
Версия формата : Version 4
Размер файла : 7,21 Гбайт
Продолжительность : 1 ч. 39 м.
Общий поток : 10,4 Мбит/сек
Дата кодирования : UTC 2020-07-29 11:57:17
Программа кодирования : mkvmerge v48.0.0 ('Fortress Around Your Heart') 64-bit
Библиотека кодирования : libebml v1.4.0 + libmatroska v1.6.0
Видео
Идентификатор : 1
Формат : AVC
Формат/Информация : Advanced Video Codec
Профиль формата : High@L4
Настройки формата : CABAC / 4 Ref Frames
Параметр CABAC формата : Да
Параметр RefFrames формата : 4 кадра
Идентификатор кодека : V_MPEG4/ISO/AVC
Продолжительность : 1 ч. 39 м.
Вид битрейта : Постоянный
Битрейт : 9091 Кбит/сек
Номинальный битрейт : 10000 Кбит/сек
Ширина : 1920 пикселей
Высота : 960 пикселей
Соотношение сторон : 2,000
Режим частоты кадров : Постоянный
Частота кадров : 23,976 (24000/1001) кадра/сек
Цветовое пространство : YUV
Субдискретизация насыщенности : 4:2:0
Битовая глубина : 8 бит
Тип развёртки : Прогрессивная
Бит/(Пиксели*Кадры) : 0.206
Размер потока : 6,32 Гбайт (88%)
Default : Да
Forced : Нет
Цветовой диапазон : Limited
Основные цвета : BT.709
Характеристики трансфера : BT.709
Коэффициенты матрицы : BT.709
Аудио #1
Идентификатор : 2
Формат : AC-3
Формат/Информация : Audio Coding 3
Коммерческое название : Dolby Digital
Идентификатор кодека : A_AC3
Продолжительность : 1 ч. 39 м.
Вид битрейта : Постоянный
Битрейт : 640 Кбит/сек
Каналы : 6 каналов
Channel layout : L R C LFE Ls Rs
Частота : 48,0 КГц
Частота кадров : 31,250 кадров/сек (1536 SPF)
Битовая глубина : 16 бит
Метод сжатия : С потерями
Размер потока : 456 Мбайт (6%)
Заголовок : Mallorn
Язык : Russian
ServiceKind/String : Complete Main
Default : Да
Forced : Нет
Аудио #2
Идентификатор : 3
Формат : E-AC-3
Формат/Информация : Enhanced AC-3
Коммерческое название : Dolby Digital Plus
Идентификатор кодека : A_EAC3
Продолжительность : 1 ч. 39 м.
Вид битрейта : Постоянный
Битрейт : 640 Кбит/сек
Каналы : 6 каналов
Channel layout : L R C LFE Ls Rs
Частота : 48,0 КГц
Частота кадров : 31,250 кадров/сек (1536 SPF)
Метод сжатия : С потерями
Размер потока : 456 Мбайт (6%)
Язык : English
ServiceKind/String : Complete Main
Default : Нет
Forced : Нет
Текст #1
Идентификатор : 4
Формат : UTF-8
Идентификатор кодека : S_TEXT/UTF8
Идентификатор кодека/Информация : UTF-8 Plain Text
Продолжительность : 1 ч. 28 м.
Битрейт : 25 бит/сек
ElementCount : 429
Размер потока : 16,4 Кбайт (0%)
Заголовок : BetterAskAnya
Язык : Russian
Default : Нет
Forced : Нет
Текст #2
Идентификатор : 5
Формат : UTF-8
Идентификатор кодека : S_TEXT/UTF8
Идентификатор кодека/Информация : UTF-8 Plain Text
Продолжительность : 1 ч. 28 м.
Битрейт : 16 бит/сек
ElementCount : 446
Размер потока : 10,8 Кбайт (0%)
Язык : English
Default : Нет
Forced : Нет
Текст #3
Идентификатор : 6
Формат : UTF-8
Идентификатор кодека : S_TEXT/UTF8
Идентификатор кодека/Информация : UTF-8 Plain Text
Продолжительность : 1 ч. 32 м.
Битрейт : 20 бит/сек
ElementCount : 613
Размер потока : 13,7 Кбайт (0%)
Заголовок : SDH
Язык : English
Default : Нет
Forced : Нет
Скриншоты:
--Релиз группа: Filmgrad.Ru ->
[filmgrad.ru].t149770.torrent 
Torrent: Registered [ 2020-07-29 17:39 ] · BC00985BDD4EE9846C9E530F2F036B03D8EEA7FF

Download .torrent

Download

145 KB

Status: checked
Completed: 0 times
Size: 7.21 GB
Оценка:  5 (Голосов: 1)
Поблагодарили: 0  Спасибо
terms.php
[Profile] [PM]
Display posts:    
Reply to topic

Current time is: 03-Aug 18:38

All times are UTC + 3



You cannot post new topics in this forum
You cannot reply to topics in this forum
You cannot edit your posts in this forum
You cannot delete your posts in this forum
You cannot vote in polls in this forum
You cannot attach files in this forum
You can download files in this forum