Космос / Cosmos (2019) BDRip [H.264/1080p]

Reply to topic
DL-List and Torrent activity
Size:  10.87 GB   |    Registered:  6 days   |    Completed:  0 times
Seeders:  86  [  0 KB/s  ]   Leechers:  15  [  0 KB/s  ]   Show peers in full details
 
     
 
 
Author Message

dybrik13 ®

Gender: Male

Longevity: 1 year 6 months

Posts: 7461

Location: Киев

Post 29-Jul-2020 07:53

[Quote]

Космос / Cosmos- Производство: Великобритания / Gravitas Yentures, Elliander Pictures
Жанр: Фантастика, детектив, приключения
Режиссер: Эллиот Уивер, Зандер Уивер
Актеры: Том Инглэнд, Джошуа Форд, Arjun Singh Panam, Бен Варди, Марк Бейлис, Майк Колетта, Саймон Вортингтон-Три астронома случайно перехватывают сигнал, который они принимают за сигнал далекой инопланетной цивилизации, но истина еще более невероятна, чем любой из них может себе представить.
Дата мировой премьеры: 14 июля 2019
Продолжительность: 02:08:50
Качество видео: BDRip (1080p)
Перевод: Многоголосый закадровый, любительский (Mallorn Studio)
Субтитры: Английские
Видео: AVC/H.264, 1920x800, ~10.3 Mbps
Аудио #1: AC3, 2 ch, 256 Kbps - Русский
Аудио #2: DTS, 6 ch, 1509 Kbps - Английский

MediaInfo:

Общее
Уникальный идентификатор : 183141522681182940261116790585161548056 (0x89C7C635DA731DA9A6E90FB0581E0118)
Полное имя : D:\NNM\Космос\Kosmos.2019.BDRip.1080p.mkv
Формат : Matroska
Версия формата : Version 4
Размер файла : 10,9 Гбайт
Продолжительность : 2 ч. 8 м.
Общий поток : 12,1 Мбит/сек
Название фильма : Kosmos.2019.BDRip.(1080p).Agentx
Дата кодирования : UTC 2020-07-28 16:40:31
Программа кодирования : mkvmerge v8.3.0 ('Over the Horizon') 64bit
Библиотека кодирования : libebml v1.3.1 + libmatroska v1.4.2
Видео
Идентификатор : 1
Формат : AVC
Формат/Информация : Advanced Video Codec
Профиль формата : High@L4.1
Настройки формата : CABAC / 4 Ref Frames
Параметр CABAC формата : Да
Параметр RefFrames формата : 4 кадра
Идентификатор кодека : V_MPEG4/ISO/AVC
Продолжительность : 2 ч. 8 м.
Битрейт : 10,3 Мбит/сек
Ширина : 1920 пикселей
Высота : 800 пикселей
Соотношение сторон : 2,40:1
Режим частоты кадров : Постоянный
Частота кадров : 23,976 (24000/1001) кадра/сек
Цветовое пространство : YUV
Субдискретизация насыщенности : 4:2:0
Битовая глубина : 8 бит
Тип развёртки : Прогрессивная
Бит/(Пиксели*Кадры) : 0.280
Размер потока : 9,28 Гбайт (85%)
Заголовок : Kosmos.2019.BDRip.(1080p).Agentx
Библиотека кодирования : x264 core 157 r2867+150 7e91e0e t_mod_Custom_2 [8-bit@all X86_64]
Настройки программы : cabac=1 / ref=4 / deblock=1:-3:-3 / analyse=0x3:0x133 / me=umh / subme=11 / psy=1 / fade_compensate=0.00 / psy_rd=0.90:0.10 / mixed_ref=1 / me_range=64 / chroma_me=1 / trellis=2 / 8x8dct=1 / cqm=0 / deadzone=21,11 / fast_pskip=0 / chroma_qp_offset=-4 / threads=25 / lookahead_threads=4 / sliced_threads=0 / nr=0 / decimate=1 / interlaced=0 / bluray_compat=0 / constrained_intra=0 / fgo=0 / bframes=8 / b_pyramid=2 / b_adapt=2 / b_bias=0 / direct=3 / weightb=1 / open_gop=0 / weightp=2 / keyint=250 / keyint_min=23 / scenecut=40 / intra_refresh=0 / rc_lookahead=60 / rc=crf / mbtree=0 / crf=17.0000 / qcomp=0.70 / qpmin=0:0:0 / qpmax=69:69:69 / qpstep=4 / vbv_maxrate=35000 / vbv_bufsize=35000 / crf_max=0.0 / nal_hrd=none / filler=0 / ip_ratio=1.40 / pb_ratio=1.30 / aq=3:1.00 / aq-sensitivity=10.00 / aq-factor=1.00:1.00:1.00 / aq2=0 / aq3=0
Default : Да
Forced : Нет
Аудио #1
Идентификатор : 2
Формат : AC-3
Формат/Информация : Audio Coding 3
Коммерческое название : Dolby Digital
Идентификатор кодека : A_AC3
Продолжительность : 2 ч. 8 м.
Вид битрейта : Постоянный
Битрейт : 256 Кбит/сек
Каналы : 2 канала
ChannelLayout : L R
Частота : 48,0 КГц
Частота кадров : 31,250 кадров/сек (1536 SPF)
Метод сжатия : С потерями
Размер потока : 236 Мбайт (2%)
Заголовок : Многоголосый (Mallorn)
Язык : Russian
ServiceKind/String : Complete Main
Default : Да
Forced : Нет
Аудио #2
Идентификатор : 3
Формат : DTS
Формат/Информация : Digital Theater Systems
Идентификатор кодека : A_DTS
Продолжительность : 2 ч. 8 м.
Вид битрейта : Постоянный
Битрейт : 1509 Кбит/сек
Каналы : 6 каналов
ChannelLayout : C L R Ls Rs LFE
Частота : 48,0 КГц
Частота кадров : 93,750 кадра/сек (512 SPF)
Битовая глубина : 24 бит
Метод сжатия : С потерями
Размер потока : 1,36 Гбайт (12%)
Язык : English
Default : Нет
Forced : Нет
Текст #1
Идентификатор : 4
Формат : UTF-8
Идентификатор кодека : S_TEXT/UTF8
Идентификатор кодека/Информация : UTF-8 Plain Text
Продолжительность : 2 ч. 3 м.
Битрейт : 52 бит/сек
ElementCount : 1529
Размер потока : 47,6 Кбайт (0%)
Язык : English
Default : Нет
Forced : Нет
Текст #2
Идентификатор : 5
Формат : UTF-8
Идентификатор кодека : S_TEXT/UTF8
Идентификатор кодека/Информация : UTF-8 Plain Text
Продолжительность : 2 ч. 8 м.
Битрейт : 55 бит/сек
ElementCount : 1748
Размер потока : 52,2 Кбайт (0%)
Язык : English
Default : Нет
Forced : Нет
Текст #3
Идентификатор : 6
Формат : UTF-8
Идентификатор кодека : S_TEXT/UTF8
Идентификатор кодека/Информация : UTF-8 Plain Text
Продолжительность : 2 ч. 3 м.
Битрейт : 52 бит/сек
ElementCount : 1521
Размер потока : 47,2 Кбайт (0%)
Язык : English
Default : Нет
Forced : Нет
Меню
00:00:00.000 : en:绗?01 绔?
00:09:04.043 : en:绗?02 绔?
00:18:27.523 : en:绗?03 绔?
00:29:29.685 : en:绗?04 绔?
00:38:26.763 : en:绗?05 绔?
00:50:16.931 : en:绗?06 绔?
01:03:48.783 : en:绗?07 绔?
01:13:14.599 : en:绗?08 绔?
01:19:01.320 : en:绗?09 绔?
01:28:29.012 : en:绗?10 绔?
01:36:48.386 : en:绗?11 绔?
01:44:53.496 : en:绗?12 绔?
01:51:35.647 : en:绗?13 绔?
02:00:25.301 : en:绗?14 绔?
02:07:17.255 : en:绗?15 绔?
Скриншоты:
--Релиз группа: Filmgrad.Ru ->
[filmgrad.ru].t149754.torrent 
Torrent: Registered [ 2020-07-29 07:53 ] · 2008FAAEB908B446A3BCDE656F9B2D912993ECA2

Download .torrent

Download

55 KB

Status: checked
Completed: 0 times
Size: 10.87 GB
Оценка:  5 (Голосов: 1)
Поблагодарили: 0  Спасибо
terms.php
[Profile] [PM]
Display posts:    
Reply to topic

Current time is: 04-Aug 19:57

All times are UTC + 3



You cannot post new topics in this forum
You cannot reply to topics in this forum
You cannot edit your posts in this forum
You cannot delete your posts in this forum
You cannot vote in polls in this forum
You cannot attach files in this forum
You can download files in this forum