Обезьяны / Monos (2019) BDRip [H.264/1080p]

Reply to topic
DL-List and Torrent activity
Size:  10.26 GB   |    Registered:  6 days   |    Completed:  0 times
Seeders:  2  [  0 KB/s  ]   Leechers:  2  [  0 KB/s  ]   Show peers in full details
 
     
 
 
Author Message

dybrik13 ®

Gender: Male

Longevity: 1 year 6 months

Posts: 7462

Location: Киев

Post 29-Jul-2020 07:51

[Quote]

Обезьяны / Monos- Производство: Колумбия, Аргентина, Нидерланды, Германия, Швеция, Уругвай, США, Швейцария, Дания, Франция / Stela Cine, Bord Cadre Films, CounterNarrative Films
Жанр: Триллер, драма, боевик
Режиссер: Алехандро Ландес
Актеры: София Буэнавентура, Julián Giraldo, Karen Quintero, Laura Castrillón, Deiby Rueda, Paul Cubides, Sneider Castro, Мойзес Ариас, Джулианна Николсон, Wilson Salazarилсон Салазар-На горной вершине где-то в Андах восьми вооруженным подросткам, принадлежащим некой воинственной Организации, поручено держать в заложницах похищенную гражданку Америки. Им также выделена корова, которую нужно беречь как зеницу ока. Целыми днями дети-солдаты с оружием в руках валяют дурака, и однажды один из них, паля по сторонам, случайно убивает корову.
Рейтинг MPAA: R (лицам до 17 лет обязательно присутствие взрослого)
Дата мировой премьеры: 27 января 2019
Продолжительность: 01:42:36
Качество видео: BDRip (1080p)
Перевод: Авторский (Замез)
Субтитры: Русские (Full), английские (Full, SDH)
Видео: AVC/H.264, 1920x804, ~13,2 Mbps
Аудио 1: AC3, 6 ch, 448 Kbps - Русский
Аудио 2: AC3, 6 ch, 640 Kbps - Испанский

MediaInfo:

Общее
Уникальный идентификатор : 176236112514457266255391873524566649253 (0x8495D73403391160AA0770A43C88E9A5)
Полное имя : D:\NNM\Обезьяны\Monos.2019.BDRip.1080p.mkv
Формат : Matroska
Версия формата : Version 4
Размер файла : 10,3 Гбайт
Продолжительность : 1 ч. 42 м.
Общий поток : 14,3 Мбит/сек
Дата кодирования : UTC 2020-06-23 19:48:32
Программа кодирования : mkvmerge v7.1.0 ('Good Love') 64bit built on Jul 27 2014 13:06:55
Библиотека кодирования : libebml v1.3.0 + libmatroska v1.4.1
Видео
Идентификатор : 1
Формат : AVC
Формат/Информация : Advanced Video Codec
Профиль формата : High@L4.1
Настройки формата : CABAC / 5 Ref Frames
Параметр CABAC формата : Да
Параметр RefFrames формата : 5 кадров
Идентификатор кодека : V_MPEG4/ISO/AVC
Продолжительность : 1 ч. 42 м.
Битрейт : 13,2 Мбит/сек
Ширина : 1920 пикселей
Высота : 804 пикселя
Соотношение сторон : 2,40:1
Режим частоты кадров : Постоянный
Частота кадров : 24,000 кадра/сек
Цветовое пространство : YUV
Субдискретизация насыщенности : 4:2:0
Битовая глубина : 8 бит
Тип развёртки : Прогрессивная
Бит/(Пиксели*Кадры) : 0.357
Размер потока : 9,47 Гбайт (92%)
Библиотека кодирования : x264 core 160 r3009 4c9b076
Настройки программы : cabac=1 / ref=5 / deblock=1:-3:-3 / analyse=0x3:0x133 / me=umh / subme=10 / psy=1 / psy_rd=1.00:0.15 / mixed_ref=1 / me_range=24 / chroma_me=1 / trellis=2 / 8x8dct=1 / cqm=0 / deadzone=21,11 / fast_pskip=1 / chroma_qp_offset=-3 / threads=18 / lookahead_threads=3 / sliced_threads=0 / nr=0 / decimate=1 / interlaced=0 / bluray_compat=0 / constrained_intra=0 / bframes=8 / b_pyramid=2 / b_adapt=2 / b_bias=0 / direct=3 / weightb=1 / open_gop=0 / weightp=2 / keyint=250 / keyint_min=24 / scenecut=40 / intra_refresh=0 / rc_lookahead=60 / rc=crf / mbtree=1 / crf=17.0 / qcomp=0.60 / qpmin=0 / qpmax=69 / qpstep=4 / ip_ratio=1.40 / aq=3:0.60
Язык : English
Default : Да
Forced : Нет
Аудио #1
Идентификатор : 2
Формат : AC-3
Формат/Информация : Audio Coding 3
Коммерческое название : Dolby Digital
Идентификатор кодека : A_AC3
Продолжительность : 1 ч. 42 м.
Вид битрейта : Постоянный
Битрейт : 448 Кбит/сек
Каналы : 6 каналов
ChannelLayout : L R C LFE Ls Rs
Частота : 48,0 КГц
Частота кадров : 31,250 кадров/сек (1536 SPF)
Метод сжатия : С потерями
Размер потока : 329 Мбайт (3%)
Заголовок : zamez
Язык : Russian
ServiceKind/String : Complete Main
Default : Да
Forced : Нет
Аудио #2
Идентификатор : 3
Формат : AC-3
Формат/Информация : Audio Coding 3
Коммерческое название : Dolby Digital
Идентификатор кодека : A_AC3
Продолжительность : 1 ч. 42 м.
Вид битрейта : Постоянный
Битрейт : 640 Кбит/сек
Каналы : 6 каналов
ChannelLayout : L R C LFE Ls Rs
Частота : 48,0 КГц
Частота кадров : 31,250 кадров/сек (1536 SPF)
Метод сжатия : С потерями
Размер потока : 469 Мбайт (4%)
Язык : Spanish
ServiceKind/String : Complete Main
Default : Нет
Forced : Нет
Текст #1
Идентификатор : 4
Формат : UTF-8
Идентификатор кодека : S_TEXT/UTF8
Идентификатор кодека/Информация : UTF-8 Plain Text
Продолжительность : 1 ч. 37 м.
Битрейт : 33 бит/сек
ElementCount : 513
Размер потока : 23,7 Кбайт (0%)
Заголовок : Full
Язык : Russian
Default : Нет
Forced : Нет
Текст #2
Идентификатор : 5
Формат : UTF-8
Идентификатор кодека : S_TEXT/UTF8
Идентификатор кодека/Информация : UTF-8 Plain Text
Продолжительность : 1 ч. 36 м.
Битрейт : 19 бит/сек
ElementCount : 558
Размер потока : 13,7 Кбайт (0%)
Заголовок : English
Язык : English
Default : Нет
Forced : Нет
Текст #3
Идентификатор : 6
Формат : PGS
Режим смешивания : zlib
Идентификатор кодека : S_HDMV/PGS
Идентификатор кодека/Информация : Picture based subtitle format used on BDs/HD-DVDs
Продолжительность : 1 ч. 36 м.
Битрейт : 4158 бит/сек
ElementCount : 1116
Размер потока : 2,88 Мбайт (0%)
Заголовок : English
Язык : English
Default : Нет
Forced : Нет
Меню
00:00:00.000 : en:00:00:00.000
00:09:33.417 : en:00:09:33.417
00:21:33.708 : en:00:21:33.708
00:33:16.208 : en:00:33:16.208
00:47:25.875 : en:00:47:25.875
01:03:34.292 : en:01:03:34.292
01:16:23.125 : en:01:16:23.125
01:30:26.833 : en:01:30:26.833
Скриншоты:
--Релиз группа: Filmgrad.Ru ->
[filmgrad.ru].t149753.torrent 
Torrent: Registered [ 2020-07-29 07:51 ] · E9868C2B8CE8109BB3A697763E14CBAB7CD2BE9C

Download .torrent

Download

52 KB

Status: checked
Completed: 0 times
Size: 10.26 GB
Оценка:  5 (Голосов: 1)
Поблагодарили: 0  Спасибо
terms.php
[Profile] [PM]
Display posts:    
Reply to topic

Current time is: 04-Aug 23:41

All times are UTC + 3



You cannot post new topics in this forum
You cannot reply to topics in this forum
You cannot edit your posts in this forum
You cannot delete your posts in this forum
You cannot vote in polls in this forum
You cannot attach files in this forum
You can download files in this forum