Убийство Романовых. Факты и мифы (Галина Огурная) [2020, документальный, история, WEBRip 720p]

Reply to topic
DL-List and Torrent activity
Size:  715 MB   |    Registered:  13 days   |    Completed:  0 times

Seeder not seen: Never

Leechers:  20  [  0 KB/s  ]   Show peers in full details
 
     
 
 
Author Message

dybrik13 ®

Gender: Male

Longevity: 1 year 6 months

Posts: 7555

Location: Киев

Post 28-Jul-2020 17:59

[Quote]

Убийство Романовых. Факты и мифы- Страна: Россия
Студия: т/к "Россия", ВГТРК, Фонд "История Отечества"
Жанр: документальный, история
Год выпуска: 2020
Продолжительность: 00:52:03
Режиссёр: Галина Огурная-102 года назад, в ночь с 16 на 17 июля 1918-го, в Екатеринбурге были расстреляны последний российский император Николай II, императрица Александра Федоровна, великие княжны Ольга, Мария, Татьяна, Анастасия, цесаревич Алексей и члены царской свиты. Трагическая гибель Царской семьи на Урале и сегодня окутана тайной и продолжает волновать умы. Дезинформация – главное орудие тех, кто хотел, чтобы правда об этом злодеянии так никогда и не была открыта. Новый фильм-расследование Елены Чавчавадзе на основе уникальных документов проливает свет на доселе неизвестные обстоятельства убийств в Перми, Екатеринбурге и Алапаевске летом 1918 года.
Рекламы нет!
Качество видео: WEBRip 720p
Формат видео: MKV
Видео: MPEG-4, 1280x720 (16:9), 25.000 fps, 1793 kbps, 0,078 bit/pixel
Аудио: Русский AAC, 48000 Гц, 2ch, 125 kbps

MediaInfo

Общее
Уникальный идентификатор : 126877271372891147154629169621672075777 (0x5F73AC725AE4D25A8BDA90CDBE432201)
Полное имя : Убийство.Романовых.Факты.и.мифы.2020.WEBRip.720p-ylnian.mkv
Формат : Matroska
Версия формата : Version 4
Размер файла : 715 Мбайт
Продолжительность : 52 м. 3 с.
Режим общего битрейта : Переменный
Общий поток : 1 920 Кбит/сек
Дата кодирования : UTC 2020-07-28 10:49:09
Программа кодирования : mkvmerge v48.0.0 ('Fortress Around Your Heart') 64-bit
Библиотека кодирования : libebml v1.4.0 + libmatroska v1.6.0
Видео
Идентификатор : 1
Формат : AVC
Формат/Информация : Advanced Video Codec
Профиль формата : High@L3.1
Настройки формата : CABAC / 2 Ref Frames
Параметр CABAC формата : Да
Параметр RefFrames формата : 2 кадра
Идентификатор кодека : V_MPEG4/ISO/AVC
Продолжительность : 52 м. 3 с.
Вид битрейта : Переменный
Битрейт : 1 793 Кбит/сек
Максимальный битрейт : 2 400 Кбит/сек
Ширина : 1 280 пикселей
Высота : 720 пикселей
Соотношение сторон : 16:9
Режим частоты кадров : Постоянный
Частота кадров : 25,000 кадров/сек
Цветовое пространство : YUV
Субдискретизация насыщенности : 4:2:0
Битовая глубина : 8 бит
Тип развёртки : Прогрессивная
Бит/(Пиксели*Кадры) : 0.078
Размер потока : 668 Мбайт (93%)
Язык : Russian
Default : Да
Forced : Нет
Аудио
Идентификатор : 2
Формат : AAC LC
Формат/Информация : Advanced Audio Codec Low Complexity
Идентификатор кодека : A_AAC-2
Продолжительность : 52 м. 3 с.
Битрейт : 125 Кбит/сек
Каналы : 2 канала
Channel layout : L R
Частота : 48,0 КГц
Частота кадров : 46,875 кадров/сек (1024 SPF)
Метод сжатия : С потерями
Задержка видео : -40 мс.
Размер потока : 46,7 Мбайт (7%)
Язык : Russian
Default : Да
Forced : Нет
--Релиз группа: Filmgrad.Ru ->
[filmgrad.ru].t149748.torrent 
Torrent: Registered [ 2020-07-28 17:59 ] · 70353D1CE613D09B3C58E258EC97CD69987BE827

Download .torrent

Download

14 KB

Status: checked
Completed: 0 times
Size: 715 MB
Оценка:  5 (Голосов: 1)
Поблагодарили: 0  Спасибо
terms.php
[Profile] [PM]
Display posts:    
Reply to topic

Current time is: 11-Aug 06:25

All times are UTC + 3



You cannot post new topics in this forum
You cannot reply to topics in this forum
You cannot edit your posts in this forum
You cannot delete your posts in this forum
You cannot vote in polls in this forum
You cannot attach files in this forum
You can download files in this forum