Никто сегодня не спит в лесу / W lesie dzis nie zasnie nikt / Nobody Sleeps in the Woods Tonight (2020) WEB-DL 1080p | L1

Reply to topic
DL-List and Torrent activity
Size:  4.89 GB   |    Registered:  5 days   |    Completed:  0 times
Seeders:  77  [  0 KB/s  ]   Leechers:  7  [  0 KB/s  ]   Show peers in full details
 
     
 
 
Author Message

dybrik13 ®

Gender: Male

Longevity: 1 year 6 months

Posts: 7448

Location: Киев

Post 28-Jul-2020 17:44

[Quote]

Никто сегодня не спит в лесу / W lesie dzis nie zasnie nikt / Nobody Sleeps in the Woods Tonight- Оригинальное название: W lesie dzis nie zasnie nikt / Nobody Sleeps in the Woods Tonight
Год выхода: 2020
Жанр: Ужасы
Режиссер: Бартош Ковальски
В ролях: Юлия Венява-Наркевич, Михал Лупа, Виктория Гонсевска, Станислав Кивка, Себастьян Дела, Габриэла Мускала, Михал Збройа, Мирослав Зброевич, Пётр Цирвус, Оляф Любашенко-Группа подростков, зависимых от гаджетов, отправляются в трудовой офлайн-лагерь, где им запрещено пользоваться прелестями мира технологий. Однако, отправившись в поход, они сталкиваются с кошмаром, которого они не видели даже в самых тёмных уголках интернета. Перед лицом смертельной опасности, скрывающейся в лесу, молодые люди поймут, что такое настоящие дружба и любовь.
Страна: Польша
Студия: Akson Studio, Plan Zet, Polski Instytut Sztuki Filmowej
Продолжительность: 01:42:28
Перевод: Любительский одноголосый | Хихидок
Кодек: AVC
Качество: WEB-DL 1080p
Видео: MPEG-4 AVC, 5741 Kбит/с, 1920x804, 23.976 кадр/с
Аудио #1: Русский (АС3, 6 ch, 448 Кбит/с, 48.0 KHz) Любительский (одноголосый, закадровый) Дмитрий Хихидок
Аудио #2: Польский (АС3, 6 ch, 640 Кбит/с, 48.0 KHz)
Субтитры: нет
► Без Рекламы!

MediaInfo

Источник: W.lesie.nie.zasnie.nikt.2020.PL.1080p.NF.WEB-DL.x264.AC3-KRT
General
Unique ID : 194592395530182515828140461543923043387 (0x926521D497D16AFF9105DFE17772CC3B)
Complete name : W.lesie.nie.zasnie.nikt.2020.WEB-DL.1080p.mkv
Format : Matroska
Format version : Version 4
File size : 4.89 GiB
Duration : 1 h 42 min
Overall bit rate mode : Variable
Overall bit rate : 6 831 kb/s
Encoded date : UTC 2020-07-27 20:49:57
Writing application : mkvmerge v7.1.0 ('Good Love') 64bit built on Jul 27 2014 13:06:55
Writing library : libebml v1.3.0 + libmatroska v1.4.1
Video
ID : 1
Format : AVC
Format/Info : Advanced Video Codec
Format profile : High@L4
Format settings : CABAC / 3 Ref Frames
Format settings, CABAC : Yes
Format settings, Reference fra : 3 frames
Format settings, GOP : M=1, N=24
Codec ID : V_MPEG4/ISO/AVC
Duration : 1 h 42 min
Bit rate mode : Variable
Bit rate : 5 741 kb/s
Maximum bit rate : 1 184 kb/s
Width : 1 920 pixels
Height : 804 pixels
Display aspect ratio : 2.40:1
Frame rate mode : Constant
Frame rate : 24.000 FPS
Color space : YUV
Chroma subsampling : 4:2:0
Bit depth : 8 bits
Scan type : Progressive
Bits/(Pixel*Frame) : 0.155
Stream size : 4.11 GiB (84%)
Language : English
Default : Yes
Forced : No
Audio #1
ID : 2
Format : AC-3
Format/Info : Audio Coding 3
Commercial name : Dolby Digital
Codec ID : A_AC3
Duration : 1 h 42 min
Bit rate mode : Constant
Bit rate : 448 kb/s
Channel(s) : 6 channels
Channel layout : L R C LFE Ls Rs
Sampling rate : 48.0 kHz
Frame rate : 31.250 FPS (1536 SPF)
Compression mode : Lossy
Stream size : 328 MiB (7%)
Title : Хихидок
Language : Russian
Service kind : Complete Main
Default : Yes
Forced : No
Audio #2
ID : 3
Format : AC-3
Format/Info : Audio Coding 3
Commercial name : Dolby Digital
Codec ID : A_AC3
Duration : 1 h 42 min
Bit rate mode : Constant
Bit rate : 640 kb/s
Channel(s) : 6 channels
Channel layout : L R C LFE Ls Rs
Sampling rate : 48.0 kHz
Frame rate : 31.250 FPS (1536 SPF)
Compression mode : Lossy
Stream size : 469 MiB (9%)
Language : Polish
Service kind : Complete Main
Default : No
Forced : No

Скриншоты

--Релиз группа: Filmgrad.Ru ->
[filmgrad.ru].t149746.torrent 
Torrent: Registered [ 2020-07-28 17:44 ] · 51EAA2806BDA4583FAA4A1E28C9B1107FC8C028F

Download .torrent

Download

13 KB

Status: checked
Completed: 0 times
Size: 4.89 GB
Оценка:  5 (Голосов: 1)
Поблагодарили: 0  Спасибо
terms.php
[Profile] [PM]
Display posts:    
Reply to topic

Current time is: 03-Aug 17:22

All times are UTC + 3



You cannot post new topics in this forum
You cannot reply to topics in this forum
You cannot edit your posts in this forum
You cannot delete your posts in this forum
You cannot vote in polls in this forum
You cannot attach files in this forum
You can download files in this forum