Ноль один / Sifir Bir (2020) WEBRip [H.264/720p-LQ]

Reply to topic
DL-List and Torrent activity
Size:  3.91 GB   |    Registered:  7 days   |    Completed:  0 times

Seeder not seen: Never

Leechers:  2  [  0 KB/s  ]   Show peers in full details
 
     
 
 
Author Message

dybrik13 ®

Gender: Male

Longevity: 1 year 6 months

Posts: 7462

Location: Киев

Post 28-Jul-2020 14:35

[Quote]

Ноль один / Sifir Bir- Производство: Турция / Sifir Bir Yapim
Жанр: Боевик, драма
Режиссер: Кадри Беран Таскин
Актеры: Savas Satis, Онур Акбай, Burak Akyüz, Cengiz Yurdutek, Mehmet Elmas, Salih Inci, Джейхун Тутал, Зафер Алтун, Hakan Aydin, Ибрахим Джоскун-Савас вместе со своими друзьями Джихатом и Азадом переезжают в Измир и начинают новую жизнь. Но тут они узнают, что кандидат в депутаты торгует людьми. Смогут ли друзья остановить злодея или погибнут?
Дата мировой премьеры: 10 января 2020
Продолжительность: 01:35:58
Качество видео: WEBRip
Перевод: Многоголосый закадровый, профессиональный (Синема УС)
Субтитры: Отсутствуют
Видео: AVC/H.264, 1280x536, ~5332 Kbps
Аудио: AC-3, 2 ch, 384 Kbps

MediaInfo:

Общее
Полное имя : D:\NNM\Ноль один\Sifir.Bir.2020.WEBRip.720p-LQ.mkv
Формат : Matroska
Версия формата : Version 2
Размер файла : 3,91 Гбайт
Продолжительность : 1 ч. 35 м.
Режим общего битрейта : Переменный
Общий поток : 5832 Кбит/сек
Программа кодирования : libmatroska 1.4.1
Библиотека кодирования : SolveigMM Matroska Muxer Version 1.0.1904.23
Видео
Идентификатор : 1
Формат : AVC
Формат/Информация : Advanced Video Codec
Профиль формата : High@L4.1
Настройки формата : CABAC / 4 Ref Frames
Параметр CABAC формата : Да
Параметр RefFrames формата : 4 кадра
Идентификатор кодека : V_MPEG4/ISO/AVC
Продолжительность : 1 ч. 35 м.
Вид битрейта : Переменный
Битрейт : 5332 Кбит/сек
Номинальный битрейт : 6000 Кбит/сек
Максимальный битрейт : 6000 Кбит/сек
Ширина : 1280 пикселей
Высота : 536 пикселей
Соотношение сторон : 2,40:1
Режим частоты кадров : Постоянный
Частота кадров : 23,976 (24000/1001) кадра/сек
Стандарт вещания : Component
Цветовое пространство : YUV
Субдискретизация насыщенности : 4:2:0
Битовая глубина : 8 бит
Тип развёртки : Прогрессивная
Бит/(Пиксели*Кадры) : 0.324
Размер потока : 3,57 Гбайт (91%)
Default : Нет
Forced : Нет
Цветовой диапазон : Limited
Основные цвета : BT.709
Характеристики трансфера : BT.709
Коэффициенты матрицы : BT.709
Аудио
Идентификатор : 2
Формат : AC-3
Формат/Информация : Audio Coding 3
Коммерческое название : Dolby Digital
Идентификатор кодека : A_AC3
Продолжительность : 1 ч. 35 м.
Вид битрейта : Постоянный
Битрейт : 384 Кбит/сек
Каналы : 2 канала
ChannelLayout : L R
Частота : 48,0 КГц
Частота кадров : 31,250 кадров/сек (1536 SPF)
Метод сжатия : С потерями
Размер потока : 264 Мбайт (7%)
Язык : Russian
ServiceKind/String : Complete Main
Default : Нет
Forced : Нет
Скриншоты: --Релиз группа: Filmgrad.Ru ->
[filmgrad.ru].t149739.torrent 
Torrent: Registered [ 2020-07-28 14:35 ] · 552DBFEB25170777B23E3D7E52E54DB89C917ECA

Download .torrent

Download

20 KB

Status: checked
Completed: 0 times
Size: 3.91 GB
Оценка:  5 (Голосов: 1)
Поблагодарили: 0  Спасибо
terms.php
[Profile] [PM]
Display posts:    
Reply to topic

Current time is: 04-Aug 22:56

All times are UTC + 3



You cannot post new topics in this forum
You cannot reply to topics in this forum
You cannot edit your posts in this forum
You cannot delete your posts in this forum
You cannot vote in polls in this forum
You cannot attach files in this forum
You can download files in this forum