Племя: Выбраться живым / Tribal Get Out Alive (2020) WEBRip [H.264/720p-LQ]

Reply to topic
DL-List and Torrent activity
Size:  3.38 GB   |    Registered:  7 days   |    Completed:  0 times
Seeders:  5  [  0 KB/s  ]   Leechers:  3  [  0 KB/s  ]   Show peers in full details
 
     
 
 
Author Message

dybrik13 ®

Gender: Male

Longevity: 1 year 6 months

Posts: 7461

Location: Киев

Post 28-Jul-2020 07:13

[Quote]

Племя: Выбраться живым / Tribal Get Out Alive- Производство: Великобритания / Wildstyle Casting and Management, Silent D Pictures
Жанр: Боевик, ужасы, триллер
Режиссер: Мэтт Рутледж
Актеры: Зара Питиан, Росс О’Хеннесси, Рэйчел Уоррен, Thomas Dodd, Valerie Thomas, Грэйсон Джеймс Мэтьюз, Ламисса Ла-Шонтэ, Марк Сирс, Питер Косгров, Kerry Newton-Ветераны британской армии Брэд и Кейтлин работают приставами, борясь с ПТСР и применяя навыки военной службы на новой работе. Во время очередного задания по освобождению частной собственности от бездомных бродяг их команда сталкивается с таинственными существами, которые обитают в недрах заброшенной фермы и не очень любят, когда их беспокоят.
Дата мировой премьеры: 7 июля 2020
Продолжительность: 01:24:59
Качество видео: WEBRip
Перевод: Многоголосый закадровый, профессиональный (Синема УС)
Субтитры: Отсутствуют
Видео: AVC/H.264, 1280x692, ~5201 Kbps
Аудио: AC-3, 2 ch, 384 Kbps

MediaInfo:

Общее
Полное имя : D:\NNM\Племя\Tribal.Get.Out.Alive.2020.WEBRip.720p-LQ-LQ.mkv
Формат : Matroska
Версия формата : Version 2
Размер файла : 3,38 Гбайт
Продолжительность : 1 ч. 24 м.
Режим общего битрейта : Переменный
Общий поток : 5698 Кбит/сек
Программа кодирования : libmatroska 1.4.1
Библиотека кодирования : SolveigMM Matroska Muxer Version 1.0.1904.23
Видео
Идентификатор : 1
Формат : AVC
Формат/Информация : Advanced Video Codec
Профиль формата : High@L4.1
Настройки формата : CABAC / 4 Ref Frames
Параметр CABAC формата : Да
Параметр RefFrames формата : 4 кадра
Идентификатор кодека : V_MPEG4/ISO/AVC
Продолжительность : 1 ч. 24 м.
Вид битрейта : Переменный
Битрейт : 5201 Кбит/сек
Номинальный битрейт : 6000 Кбит/сек
Максимальный битрейт : 6000 Кбит/сек
Ширина : 1280 пикселей
Высота : 692 пикселя
Соотношение сторон : 1,85:1
Режим частоты кадров : Постоянный
Частота кадров : 23,976 (24000/1001) кадра/сек
Стандарт вещания : Component
Цветовое пространство : YUV
Субдискретизация насыщенности : 4:2:0
Битовая глубина : 8 бит
Тип развёртки : Прогрессивная
Бит/(Пиксели*Кадры) : 0.245
Размер потока : 3,09 Гбайт (91%)
Default : Нет
Forced : Нет
Цветовой диапазон : Limited
Основные цвета : BT.709
Характеристики трансфера : BT.709
Коэффициенты матрицы : BT.709
Аудио
Идентификатор : 2
Формат : AC-3
Формат/Информация : Audio Coding 3
Коммерческое название : Dolby Digital
Идентификатор кодека : A_AC3
Продолжительность : 1 ч. 24 м.
Вид битрейта : Постоянный
Битрейт : 384 Кбит/сек
Каналы : 2 канала
ChannelLayout : L R
Частота : 48,0 КГц
Частота кадров : 31,250 кадров/сек (1536 SPF)
Метод сжатия : С потерями
Размер потока : 233 Мбайт (7%)
Язык : Russian
ServiceKind/String : Complete Main
Default : Нет
Forced : Нет
Скриншоты: --Релиз группа: Filmgrad.Ru ->
[filmgrad.ru].t149735.torrent 
Torrent: Registered [ 2020-07-28 07:13 ] · 652692C2D6C4F616E7EBAB52FB97A2185A34C633

Download .torrent

Download

18 KB

Status: checked
Completed: 0 times
Size: 3.38 GB
Оценка:  5 (Голосов: 1)
Поблагодарили: 0  Спасибо
terms.php
[Profile] [PM]
Display posts:    
Reply to topic

Current time is: 04-Aug 19:46

All times are UTC + 3



You cannot post new topics in this forum
You cannot reply to topics in this forum
You cannot edit your posts in this forum
You cannot delete your posts in this forum
You cannot vote in polls in this forum
You cannot attach files in this forum
You can download files in this forum