Убийственная внешность / Looks That Kill (2020) WEBRip [H.264/1080p-LQ]

Reply to topic
DL-List and Torrent activity
Size:  4.85 GB   |    Registered:  7 days   |    Completed:  0 times

Seeder not seen: Never

Leechers:  4  [  0 KB/s  ]   Show peers in full details
 
     
 
 
Author Message

dybrik13 ®

Gender: Male

Longevity: 1 year 6 months

Posts: 7461

Location: Киев

Post 28-Jul-2020 07:08

[Quote]

Убийственная внешность / Looks That Kill- Производство: США / American High, LD Entertainment
Жанр: Драма, мелодрама, комедия
Режиссер: Келлен Мур
Актеры: Брэндон Флинн, Джулия Голден Теллес, Ки Хон Ли, Энни Мумоло, Lindsay Mushett, Том Проктер, Присцилла Лопес, Сьюзэн Бергер, Мик О’Рурк, Jude Washock-Хотели бы вы иметь такую отпадную внешность, что любой при одном лишь взгляде на вас умирал? У Макса как раз такое лицо и он вовсе этому не рад. Он не может найти друзей, а в личной жизни так и вообще полная катастрофа. А потом он встречает Алекс.
Дата мировой премьеры: 19 июня 2020
Продолжительность: 01:31:48
Качество видео: WEBRip
Перевод: Многоголосый закадровый, любительский (MUZOBOZ)
Субтитры: Отсутствуют
Видео: AVC/H.264, 1916x804, ~7029 Kbps
Аудио: AC3, 2 ch, 384 Kbps

MediaInfo:

Общее
Полное имя : D:\NNM\Убийственная внешность\Looks.That.Kill.2020.WEBRip.1080p-LQ.mkv
Формат : Matroska
Версия формата : Version 2
Размер файла : 4,85 Гбайт
Продолжительность : 1 ч. 31 м.
Режим общего битрейта : Переменный
Общий поток : 7563 Кбит/сек
Программа кодирования : libmatroska 1.4.1
Библиотека кодирования : SolveigMM Matroska Muxer Version 1.0.1904.23
Видео
Идентификатор : 1
Формат : AVC
Формат/Информация : Advanced Video Codec
Профиль формата : High@L4.1
Настройки формата : CABAC / 4 Ref Frames
Параметр CABAC формата : Да
Параметр RefFrames формата : 4 кадра
Идентификатор кодека : V_MPEG4/ISO/AVC
Продолжительность : 1 ч. 31 м.
Вид битрейта : Переменный
Битрейт : 7029 Кбит/сек
Номинальный битрейт : 8000 Кбит/сек
Максимальный битрейт : 8000 Кбит/сек
Ширина : 1916 пикселей
Высота : 804 пикселя
Соотношение сторон : 2,40:1
Режим частоты кадров : Постоянный
Частота кадров : 23,976 (24000/1001) кадра/сек
Стандарт вещания : Component
Цветовое пространство : YUV
Субдискретизация насыщенности : 4:2:0
Битовая глубина : 8 бит
Тип развёртки : Прогрессивная
Бит/(Пиксели*Кадры) : 0.190
Размер потока : 4,51 Гбайт (93%)
Default : Нет
Forced : Нет
Цветовой диапазон : Limited
Основные цвета : BT.709
Характеристики трансфера : BT.709
Коэффициенты матрицы : BT.709
Аудио
Идентификатор : 2
Формат : AC-3
Формат/Информация : Audio Coding 3
Коммерческое название : Dolby Digital
Идентификатор кодека : A_AC3
Продолжительность : 1 ч. 31 м.
Вид битрейта : Постоянный
Битрейт : 384 Кбит/сек
Каналы : 2 канала
ChannelLayout : L R
Частота : 48,0 КГц
Частота кадров : 31,250 кадров/сек (1536 SPF)
Метод сжатия : С потерями
Размер потока : 252 Мбайт (5%)
Язык : Russian
ServiceKind/String : Complete Main
Default : Нет
Forced : Нет
Скриншоты: --Релиз группа: Filmgrad.Ru ->
[filmgrad.ru].t149733.torrent 
Torrent: Registered [ 2020-07-28 07:08 ] · 02AB622A1002A5045ACA733DB6E01E9E2F5ADBBD

Download .torrent

Download

25 KB

Status: checked
Completed: 0 times
Size: 4.85 GB
Оценка:  5 (Голосов: 1)
Поблагодарили: 0  Спасибо
terms.php
[Profile] [PM]
Display posts:    
Reply to topic

Current time is: 04-Aug 19:39

All times are UTC + 3



You cannot post new topics in this forum
You cannot reply to topics in this forum
You cannot edit your posts in this forum
You cannot delete your posts in this forum
You cannot vote in polls in this forum
You cannot attach files in this forum
You can download files in this forum