Призраки войны / Ghosts of War (2020) WEB-DL [H.264/1080p]

Reply to topic
DL-List and Torrent activity
Size:  6.02 GB   |    Registered:  7 days   |    Completed:  1 time
Seeders:  9  [  0 KB/s  ]   Leechers:  3  [  0 KB/s  ]   Show peers in full details
 
     
 
 
Author Message

dybrik13 ®

Gender: Male

Longevity: 1 year 6 months

Posts: 7448

Location: Киев

Post 27-Jul-2020 17:05

[Quote]

Призраки войны / Ghosts of War- Производство: Великобритания / Miscellaneous Entertainment
Жанр: Ужасы, триллер, военный
Режиссер: Эрик Бресс
Продюсер: Шелли Мэдисон, Д. Тодд Шеперд, Джо Симпсон
Актеры: Брентон Туэйтс, Тео Росси, Кайл Галлнер, Скайлар Эстин, Алан Ричсон, Лайла Банки, Нэйтан Купер, Ребекка Флинн, Калоян Христов, Alexander Behrang Keshtkar-Последние месяцы Второй мировой войны. Французская провинция. Пятеро опытных американских солдат получают приказ охранять замок, в котором еще недавно располагалось нацистское верховное командование. Эта неожиданная передышка перерастает в безумие, когда они сталкиваются со сверхъестественными силами, гораздо более страшными, чем то, что творилось на поле боя.
Рейтинг MPAA: R Лицам до 17 обязательно присутствие взрослых
Дата мировой премьеры: 17 июля 2020
Дата российской премьеры: 13 августа 2020, «Парадиз»
Продолжительность: 01:35:02
Качество видео: WEB-DL 1080p
Перевод: Дублированный (iTunes), Профессиональный многоголосый (HDRezka Studio)
Субтитры: Русские (Forced, Full), Английские (Full, SDH)
Видео: AVC/H.264, 1920x816, 7594 Kbps, 23.976 fps
Аудио 1: AC-3, 6 ch, 384 Kbps | Русский Dub iTunes
Аудио 2: AC-3, 6 ch, 448 Kbps | Русский MVO HDRezka Studio
Аудио 3: E-AC-3, 6 ch, 640 Kbps | Английский

Mediainfo:

General
Unique ID : 295956414159158741263956399145472128011 (0xDEA721CC79127B07EB54A65BF436740B)
Complete name : /Volumes/Promise Pegasus/Ghosts.of.War.WEB-DL.1080p.mkv
Format : Matroska
Format version : Version 4
File size : 6.02 GiB
Duration : 1h 35mn
Overall bit rate : 9 069 Kbps
Movie name : Ghosts of War WEB-DL 1080p
Encoded date : UTC 2020-07-26 16:18:01
Writing application : mkvmerge v48.0.0 ('Fortress Around Your Heart') 64-bit
Writing library : libebml v1.4.0 + libmatroska v1.6.0
Video
ID : 1
Format : AVC
Format/Info : Advanced Video Codec
Format profile : High@L4
Format settings : CABAC / 4 Ref Frames
Format settings, CABAC : Yes
Format settings, ReFrames : 4 frames
Codec ID : V_MPEG4/ISO/AVC
Duration : 1h 35mn
Bit rate mode : Constant
Bit rate : 7 594 Kbps
Nominal bit rate : 10 000 Kbps
Width : 1 920 pixels
Height : 816 pixels
Display aspect ratio : 2.35:1
Frame rate mode : Constant
Frame rate : 23.976 (24000/1001) fps
Color space : YUV
Chroma subsampling : 4:2:0
Bit depth : 8 bits
Scan type : Progressive
Bits/(Pixel*Frame) : 0.202
Stream size : 5.04 GiB (84%)
Language : English
Default : Yes
Forced : No
Color range : Limited
Color primaries : BT.709
Transfer characteristics : BT.709
Matrix coefficients : BT.709
Audio #1
ID : 2
Format : AC-3
Format/Info : Audio Coding 3
Commercial name : Dolby Digital
Codec ID : A_AC3
Duration : 1h 35mn
Bit rate mode : Constant
Bit rate : 384 Kbps
Channel(s) : 6 channels
Channel layout : L R C LFE Ls Rs
Sampling rate : 48.0 KHz
Frame rate : 31.250 fps (1536 SPF)
Compression mode : Lossy
Stream size : 261 MiB (4%)
Title : Russian Dub iTunes
Language : Russian
Service kind : Complete Main
Default : Yes
Forced : No
Audio #2
ID : 3
Format : AC-3
Format/Info : Audio Coding 3
Commercial name : Dolby Digital
Codec ID : A_AC3
Duration : 1h 35mn
Bit rate mode : Constant
Bit rate : 448 Kbps
Channel(s) : 6 channels
Channel layout : L R C LFE Ls Rs
Sampling rate : 48.0 KHz
Frame rate : 31.250 fps (1536 SPF)
Compression mode : Lossy
Stream size : 305 MiB (5%)
Title : Russian MVO HDRezka Studio
Language : Russian
Service kind : Complete Main
Default : No
Forced : No
Audio #3
ID : 4
Format : E-AC-3
Format/Info : Enhanced AC-3
Commercial name : Dolby Digital Plus
Codec ID : A_EAC3
Duration : 1h 35mn
Bit rate mode : Constant
Bit rate : 640 Kbps
Channel(s) : 6 channels
Channel layout : L R C LFE Ls Rs
Sampling rate : 48.0 KHz
Frame rate : 31.250 fps (1536 SPF)
Compression mode : Lossy
Stream size : 435 MiB (7%)
Title : English Original
Language : English
Service kind : Complete Main
Default : No
Forced : No
Text #1
ID : 5
Format : UTF-8
Codec ID : S_TEXT/UTF8
Codec ID/Info : UTF-8 Plain Text
Duration : 1h 26mn
Bit rate : 5 bps
Count of elements : 83
Stream size : 3.72 KiB (0%)
Title : Russian forced HDRezka Studio
Language : Russian
Default : Yes
Forced : No
Text #2
ID : 6
Format : UTF-8
Codec ID : S_TEXT/UTF8
Codec ID/Info : UTF-8 Plain Text
Duration : 1h 27mn
Bit rate : 68 bps
Count of elements : 807
Stream size : 43.9 KiB (0%)
Title : Russian full
Language : Russian
Default : No
Forced : No
Text #3
ID : 7
Format : UTF-8
Codec ID : S_TEXT/UTF8
Codec ID/Info : UTF-8 Plain Text
Duration : 1h 26mn
Bit rate : 36 bps
Count of elements : 796
Stream size : 23.2 KiB (0%)
Title : English full
Language : English
Default : No
Forced : No
Text #4
ID : 8
Format : UTF-8
Codec ID : S_TEXT/UTF8
Codec ID/Info : UTF-8 Plain Text
Duration : 1h 27mn
Bit rate : 44 bps
Count of elements : 1073
Stream size : 28.6 KiB (0%)
Title : English SDH
Language : English
Default : No
Forced : No
Скриншоты:
--Релиз группа: Filmgrad.Ru ->
[filmgrad.ru].t149728.torrent 
Torrent: Registered [ 2020-07-27 17:05 ] · 14DBD3868C24E5E1CC0C4488EA6B821BD4806ACB

Download .torrent

Download

61 KB

Status: checked
Completed: 1 times
Size: 6.02 GB
Оценка:  4.5 (Голосов: 2)
Поблагодарили: 1  Спасибо   (список)
terms.php
[Profile] [PM]
Display posts:    
Reply to topic

Current time is: 03-Aug 18:05

All times are UTC + 3



You cannot post new topics in this forum
You cannot reply to topics in this forum
You cannot edit your posts in this forum
You cannot delete your posts in this forum
You cannot vote in polls in this forum
You cannot attach files in this forum
You can download files in this forum