Тысяча лиц Дуньцзя / Qi Men Dun Jia (2020) WEBRip-HEVC 1080p | L2

Reply to topic
DL-List and Torrent activity
Size:  1.93 GB   |    Registered:  15 days   |    Completed:  0 times
Seeders:  63  [  0 KB/s  ]   Leechers:  16  [  0 KB/s  ]   Show peers in full details
 
     
 
 
Author Message

dybrik13 ®

Gender: Male

Longevity: 1 year 6 months

Posts: 7556

Location: Киев

Post 26-Jul-2020 18:43

[Quote]

Тысяча лиц Дуньцзя / Qi Men Dun Jia- Оригинальное название: Qi Men Dun Jia
Год выхода: 2020
Жанр: Драма, исторический, мистика, ужасы, фэнтези
Режиссер: Хэшен Сян, Цюлян Сян
В ролях: Хэ Пэн, Эдди Ко, Диди Линь, Юе Синь, Сунь Цзяолун, Ван Хунцянь-Чжоу Тон, обычный магистрат города Лоча, жил спокойной жизнью, защищая граждан. У него была подруга по прозвищу "Блоха", которая всюду следовала за ним. Однажды на Блоху напал Цзя Мин, Чжоу Тон сразу отреагировал и пригрозил раскрыть правду семьи. Цзя Мин обозлился и подставил отца Чжоу Тона. В день вынесения приговора, напали демоны и убили отца Чжоу Тона, и покалечили его самого. Но клан Тумана забрал бедного магистрата и подлечили его, а так же стали учить секретному мастерству - Ци Мэнь Дунь Цзя...
Страна: Китай
Продолжительность: 01:23:32
Перевод: Любительский двухголосый - East Dream
Кодек: HEVC
Качество: WEBRip-HEVC 1080p
Видео: 1920x720 (2.66:1), 23.976 fps, HEVC Main@L4@High ~3079 kbps avg, 0.093 bit/pixel
Звук: 48 kHz, MP3, 2/0 ch, ~232 kbps
Субтитры: нет

МедиаИнфо

General
Unique ID : 40454003815859788646376179238606126047 (0x1E6F28611EB16B4030D95EAC7ED6BBDF)
Complete name : G:ФільмиFantasy.Magician.2020.WEB-DL.1080p.EAST_DREAM.mkv
Format : Matroska
Format version : Version 4
File size : 1.93 GiB
Duration : 1 h 23 min
Overall bit rate mode : Variable
Overall bit rate : 3 312 kb/s
Encoded date : UTC 2020-06-07 15:04:42
Writing application : mkvmerge v33.1.0 ('Primrose') 64-bit
Writing library : libebml v1.3.7 + libmatroska v1.5.0
Video
ID : 1
Format : HEVC
Format/Info : High Efficiency Video Coding
Format profile : Main@L4@High
Codec ID : V_MPEGH/ISO/HEVC
Duration : 1 h 23 min
Bit rate : 3 079 kb/s
Width : 1 920 pixels
Height : 720 pixels
Display aspect ratio : 2.667
Frame rate mode : Constant
Frame rate : 24.000 FPS
Color space : YUV
Chroma subsampling : 4:2:0
Bit depth : 8 bits
Bits/(Pixel*Frame) : 0.093
Stream size : 1.80 GiB (93%)
Default : Yes
Forced : No
Color range : Limited
Audio
ID : 2
Format : MPEG Audio
Format version : Version 1
Format profile : Layer 3
Codec ID : A_MPEG/L3
Codec ID/Hint : MP3
Duration : 1 h 23 min
Bit rate mode : Variable
Bit rate : 232 kb/s
Channel(s) : 2 channels
Sampling rate : 48.0 kHz
Frame rate : 41.667 FPS (1152 SPF)
Compression mode : Lossy
Delay relative to video : -125 ms
Stream size : 139 MiB (7%)
Default : Yes
Forced : No

Скриншоты

--Релиз группа: Filmgrad.Ru ->
[filmgrad.ru].t149712.torrent 
Torrent: Registered [ 2020-07-26 18:43 ] · F8119893A67DA98BF8FB75234A778EFF9E1126F2

Download .torrent

Download

20 KB

Status: checked
Completed: 0 times
Size: 1.93 GB
Оценка:  5 (Голосов: 1)
Поблагодарили: 0  Спасибо
terms.php
[Profile] [PM]
Display posts:    
Reply to topic

Current time is: 11-Aug 07:31

All times are UTC + 3



You cannot post new topics in this forum
You cannot reply to topics in this forum
You cannot edit your posts in this forum
You cannot delete your posts in this forum
You cannot vote in polls in this forum
You cannot attach files in this forum
You can download files in this forum