Двойной мир / Zheng tu / Double World (2020) WEB-DL [H.264/1080p-LQ]

Reply to topic
DL-List and Torrent activity
Size:  5.12 GB   |    Registered:  9 days   |    Completed:  3 times
Seeders:  1  [  0 KB/s  ]   Leechers:  7  [  0 KB/s  ]   Show peers in full details
 
     
 
 
Author Message

dybrik13 ®

Gender: Male

Longevity: 1 year 6 months

Posts: 7461

Location: Киев

Post 26-Jul-2020 07:44

[Quote]

Двойной мир / Zheng tu / Double World- Производство: Гонконг / China Film Group Corporation (CFGC) Filmko Film Co. Giant Pictures
Жанр: Боевик, приключения, фэнтези
Режиссер: Тедди Чан
Актеры: Генри Лау, Питер Хо, Ло Чун-Хим, Линь Чэньхань, Цзян Луся, Ху Мин, Марк Чэн, Линь Сююй, Тайгер Сюй, Чжан Нинцзян-Всё происходит в вымышленной вселенной, состоящей из десяти наций. Видя, как соседняя страна становится все более могущественной, великий репетитор организует соревнование, чтобы выявить лучших воинов. Услышав новость, Дун Илун, доблестный молодой сельский житель, решает принять вызов, несмотря на сомнения его деревни. Так начинается путешествие.
Дата мировой премьеры: 21 июля 2020
Продолжительность: 01:50:02
Качество видео: WEB-DL
Перевод: Любительский двухголосый (East Dream)
Субтитры: Отсутствуют
Видео: AVC/H.264, 1920x1080, ~6490 Kbps
Аудио: AC3, 2 ch, 192 Kbps

MediaInfo:

Общее
Уникальный идентификатор : 158548312576352018339359561606255193876 (0x77474B56157BC390044CE5BDE861AF14)
Полное имя : D:\NNM\Двойной мир\Double.World.2020.WEB-DL.1080p-LQ.mkv
Формат : Matroska
Версия формата : Version 4
Размер файла : 5,12 Гбайт
Продолжительность : 1 ч. 50 м.
Режим общего битрейта : Переменный
Общий поток : 6657 Кбит/сек
Дата кодирования : UTC 2020-07-25 14:41:56
Программа кодирования : mkvmerge v33.1.0 ('Primrose') 64-bit
Библиотека кодирования : libebml v1.3.7 + libmatroska v1.5.0
Видео
Идентификатор : 1
Формат : AVC
Формат/Информация : Advanced Video Codec
Профиль формата : Main@L4
Настройки формата : CABAC / 3 Ref Frames
Параметр CABAC формата : Да
Параметр RefFrames формата : 3 кадра
Идентификатор кодека : V_MPEG4/ISO/AVC
Продолжительность : 1 ч. 50 м.
Вид битрейта : Переменный
Битрейт : 6490 Кбит/сек
Максимальный битрейт : 9735 Кбит/сек
Ширина : 1920 пикселей
Высота : 1080 пикселей
Соотношение сторон : 16:9
Режим частоты кадров : Постоянный
Частота кадров : 24,000 кадра/сек
Цветовое пространство : YUV
Субдискретизация насыщенности : 4:2:0
Битовая глубина : 8 бит
Тип развёртки : Прогрессивная
Бит/(Пиксели*Кадры) : 0.130
Размер потока : 4,97 Гбайт (97%)
Библиотека кодирования : x264 core 148 r2715 7e75228
Настройки программы : cabac=1 / ref=3 / deblock=1:0:0 / analyse=0x1:0x111 / me=umh / subme=10 / psy=1 / psy_rd=1.00:0.00 / mixed_ref=1 / me_range=24 / chroma_me=1 / trellis=2 / 8x8dct=0 / cqm=0 / deadzone=21,11 / fast_pskip=1 / chroma_qp_offset=-2 / threads=8 / lookahead_threads=1 / sliced_threads=0 / nr=0 / decimate=1 / interlaced=0 / bluray_compat=0 / stitchable=1 / constrained_intra=0 / bframes=2 / b_pyramid=0 / b_adapt=2 / b_bias=0 / direct=3 / weightb=1 / open_gop=0 / weightp=2 / keyint=250 / keyint_min=24 / scenecut=0 / intra_refresh=0 / rc_lookahead=48 / rc=2pass / mbtree=1 / bitrate=6490 / ratetol=1.0 / qcomp=0.50 / qpmin=6 / qpmax=51 / qpstep=4 / cplxblur=20.0 / qblur=0.5 / vbv_maxrate=9735 / vbv_bufsize=12980 / nal_hrd=vbr / filler=0 / ip_ratio=1.40 / aq=1:1.00
Default : Да
Forced : Нет
Аудио
Идентификатор : 2
Формат : AC-3
Формат/Информация : Audio Coding 3
Коммерческое название : Dolby Digital
Идентификатор кодека : A_AC3
Продолжительность : 1 ч. 50 м.
Вид битрейта : Постоянный
Битрейт : 192 Кбит/сек
Каналы : 2 канала
ChannelLayout : L R
Частота : 48,0 КГц
Частота кадров : 31,250 кадров/сек (1536 SPF)
Метод сжатия : С потерями
Размер потока : 151 Мбайт (3%)
Заголовок : East Dream
ServiceKind/String : Complete Main
Default : Да
Forced : Нет
Скриншоты: --Релиз группа: Filmgrad.Ru ->
[filmgrad.ru].t149707.torrent 
Torrent: Registered [ 2020-07-26 07:44 ] · 0FC28421DE1F3B6B2A406C6C111498BD2AFCB53F

Download .torrent

Download

26 KB

Status: checked
Completed: 3 times
Size: 5.12 GB
Оценка:  5 (Голосов: 1)
Поблагодарили: 0  Спасибо
terms.php
[Profile] [PM]
Display posts:    
Reply to topic

Current time is: 04-Aug 19:51

All times are UTC + 3



You cannot post new topics in this forum
You cannot reply to topics in this forum
You cannot edit your posts in this forum
You cannot delete your posts in this forum
You cannot vote in polls in this forum
You cannot attach files in this forum
You can download files in this forum