Первая корова / First Cow [2019, Драма, WEB-DLRip 720p | HDRezka Studio]

Reply to topic
DL-List and Torrent activity
Size:  3.36 GB   |    Registered:  9 days   |    Completed:  0 times

Seeder not seen: Never

Leechers:  8  [  0 KB/s  ]   Show peers in full details
 
     
 
 
Author Message

dybrik13 ®

Gender: Male

Longevity: 1 year 6 months

Posts: 7451

Location: Киев

Post 25-Jul-2020 12:22

[Quote]

Первая корова / First Cow- Оригинальное название: First Cow
Год выхода: 2019
Жанр: Драма
Режиссер: Келли Райхардт
В ролях: Джон Магаро, Орион Ли, Рене Обержонуа, Тоби Джонс, Юэн Бремнер, Скотт Шеперд, Гэри Фармер, Лили Гладстоун, Алиа Шокат, Джон Китинг-Одинокий повар, путешествующий по Западу времён покорения Америки, присоединяется к новому поселению, где знакомится с иммигрантом из Китая. Вместе они организуют бизнес, успех которого зиждется на существовании коровы, которая принадлежит местному богатому землевладельцу.
Выпущено: США / Walt Disney Productions
Продолжительность: 02:01:46
Перевод: Профессиональный (многоголосый закадровый)[ HDRezka Studio]
Качество: WEB-DLRip 720p
Формат: MKV
Видео: MPEG-4 AVC/H.264, 3100 Кбит/сек, 960x720
Аудио #1: Русский: AC3, 6 ch, 448 Кбит/с
Аудио #2: Английский: AC3, 6 ch, 448 Кбит/с
Субтитры: Русские, украинские, английские [вшитые отключаемые]

MediaInfo:

Общее
Уникальный идентификатор : 292053248720382237482624636897329666311 (0xDBB768E28863867072073E85DD57D907)
Полное имя : F:\РЕЛИЗЫ ФИЛЬМОВ\01. ФИЛЬМЫ\Первая корова First Cow (2019)\First Cow (2019) WEB-DLRip 720p.mkv
Формат : Matroska
Версия формата : Version 4
Размер файла : 3,36 Гбайт
Продолжительность : 2 ч. 1 м.
Общий поток : 3 952 Кбит/сек
Дата кодирования : UTC 2020-07-25 04:56:35
Программа кодирования : mkvmerge v48.0.0 ('Fortress Around Your Heart') 64-bit
Библиотека кодирования : libebml v1.4.0 + libmatroska v1.6.0
Attachments : poster.jpg
Видео
Идентификатор : 1
Формат : AVC
Формат/Информация : Advanced Video Codec
Профиль формата : High@L4.1
Настройки формата : CABAC / 9 Ref Frames
Параметр CABAC формата : Да
Параметр RefFrames формата : 9 кадров
Идентификатор кодека : V_MPEG4/ISO/AVC
Продолжительность : 2 ч. 1 м.
Битрейт : 3 100 Кбит/сек
Ширина : 960 пикселей
Высота : 720 пикселей
Соотношение сторон : 4:3
Режим частоты кадров : Постоянный
Частота кадров : 23,976 (24000/1001) кадра/сек
Цветовое пространство : YUV
Субдискретизация насыщенности : 4:2:0
Битовая глубина : 8 бит
Тип развёртки : Прогрессивная
Бит/(Пиксели*Кадры) : 0.187
Размер потока : 2,60 Гбайт (77%)
Заголовок : USA (Film Science)
Библиотека кодирования : x264 core 157 r2958 57baac4
Настройки программы : cabac=1 / ref=10 / deblock=1:-3:-3 / analyse=0x3:0x133 / me=umh / subme=11 / psy=1 / psy_rd=1.05:0.10 / mixed_ref=1 / me_range=32 / chroma_me=1 / trellis=2 / 8x8dct=1 / cqm=0 / deadzone=21,11 / fast_pskip=0 / chroma_qp_offset=-3 / threads=12 / lookahead_threads=1 / sliced_threads=0 / nr=0 / decimate=1 / interlaced=0 / bluray_compat=0 / constrained_intra=0 / bframes=10 / b_pyramid=1 / b_adapt=1 / b_bias=10 / direct=1 / weightb=1 / open_gop=0 / weightp=1 / keyint=240 / keyint_min=24 / scenecut=40 / intra_refresh=0 / rc_lookahead=60 / rc=abr / mbtree=1 / bitrate=3100 / ratetol=1.0 / qcomp=0.70 / qpmin=3 / qpmax=69 / qpstep=4 / ip_ratio=1.40 / aq=2:1.00
Язык : English
Default : Да
Forced : Нет
Цветовой диапазон : Limited
Основные цвета : BT.709
Характеристики трансфера : BT.709
Коэффициенты матрицы : BT.709
Аудио #1
Идентификатор : 2
Формат : AC-3
Формат/Информация : Audio Coding 3
Коммерческое название : Dolby Digital
Идентификатор кодека : A_AC3
Продолжительность : 2 ч. 1 м.
Вид битрейта : Постоянный
Битрейт : 448 Кбит/сек
Каналы : 6 каналов
Channel layout : L R C LFE Ls Rs
Частота : 48,0 КГц
Частота кадров : 31,250 кадров/сек (1536 SPF)
Метод сжатия : С потерями
Размер потока : 390 Мбайт (11%)
Заголовок : MVO (HDRezka Studio)
Язык : Russian
Service kind : Complete Main
Default : Да
Forced : Нет
Аудио #2
Идентификатор : 3
Формат : AC-3
Формат/Информация : Audio Coding 3
Коммерческое название : Dolby Digital
Идентификатор кодека : A_AC3
Продолжительность : 2 ч. 1 м.
Вид битрейта : Постоянный
Битрейт : 448 Кбит/сек
Каналы : 6 каналов
Channel layout : L R C LFE Ls Rs
Частота : 48,0 КГц
Частота кадров : 31,250 кадров/сек (1536 SPF)
Метод сжатия : С потерями
Размер потока : 390 Мбайт (11%)
Заголовок : Original (English)
Язык : English
Service kind : Complete Main
Default : Нет
Forced : Нет
Текст #1
Идентификатор : 4
Формат : UTF-8
Идентификатор кодека : S_TEXT/UTF8
Идентификатор кодека/Информация : UTF-8 Plain Text
Продолжительность : 1 ч. 55 м.
Битрейт : 1 бит/сек
Count of elements : 27
Размер потока : 1,37 Кбайт (0%)
Заголовок : FORCED
Язык : Russian
Default : Да
Forced : Нет
Текст #2
Идентификатор : 5
Формат : UTF-8
Идентификатор кодека : S_TEXT/UTF8
Идентификатор кодека/Информация : UTF-8 Plain Text
Продолжительность : 1 ч. 57 м.
Битрейт : 37 бит/сек
Count of elements : 657
Размер потока : 32,5 Кбайт (0%)
Заголовок : FULL
Язык : Russian
Default : Нет
Forced : Нет
Текст #3
Идентификатор : 6
Формат : UTF-8
Идентификатор кодека : S_TEXT/UTF8
Идентификатор кодека/Информация : UTF-8 Plain Text
Продолжительность : 1 ч. 57 м.
Битрейт : 37 бит/сек
Count of elements : 656
Размер потока : 32,3 Кбайт (0%)
Язык : Ukrainian
Default : Нет
Forced : Нет
Текст #4
Идентификатор : 7
Формат : UTF-8
Идентификатор кодека : S_TEXT/UTF8
Идентификатор кодека/Информация : UTF-8 Plain Text
Продолжительность : 2 ч. 1 м.
Битрейт : 27 бит/сек
Count of elements : 1
Размер потока : 24,3 Кбайт (0%)
Заголовок : SDH
Язык : English
Default : Нет
Forced : Нет
--Релиз группа: Filmgrad.Ru ->
[filmgrad.ru].t149690.torrent 
Torrent: Registered [ 2020-07-25 12:22 ] · 0C935073B2403B5D574CD737A4FA30602F4F1B7D

Download .torrent

Download

18 KB

Status: checked
Completed: 0 times
Size: 3.36 GB
Оценка:  5 (Голосов: 1)
Поблагодарили: 0  Спасибо
terms.php
[Profile] [PM]
Display posts:    
Reply to topic

Current time is: 03-Aug 18:27

All times are UTC + 3



You cannot post new topics in this forum
You cannot reply to topics in this forum
You cannot edit your posts in this forum
You cannot delete your posts in this forum
You cannot vote in polls in this forum
You cannot attach files in this forum
You can download files in this forum