Наследие костей / Legado en los huesos (2019) WEBRip [H.264/1080p-LQ]

Reply to topic
DL-List and Torrent activity
Size:  6.27 GB   |    Registered:  10 days   |    Completed:  0 times

Seeder not seen: Never

Leechers:  2  [  0 KB/s  ]   Show peers in full details
 
     
 
 
Author Message

dybrik13 ®

Gender: Male

Longevity: 1 year 6 months

Posts: 7461

Location: Киев

Post 25-Jul-2020 12:10

[Quote]

Наследие костей / Legado en los huesos- Производство: Испания, Германия / ARTE, Atresmedia Cine, Nadcon Film
Жанр: Триллер, криминал
Режиссер: Фернандо Гонзалез Молина
Актеры: Марта Этура, Нене, Леонардо Сбаралья, Франсеск Орелья, Иманоль Ариас, Бенджамин Нортовер, Itziar Aizpuru, Патриция Лопез, Алисия Санчес, Eduardo Rosa-Инспектор Амайя Салазар возвращается в долину Базтан ради нового дела.
И на этот раз даже ее любимые не в безопасности.
Дата мировой премьеры: 17 апреля 2020
Продолжительность: 02:01:32
Качество видео: WEBRip
Перевод: Многоголосый закадровый, любительский (MUZOBOZ)
Субтитры: Отсутствуют
Видео: AVC/H.264, 1920x804, ~6858 Kbps
Аудио: AC3, 2 ch, 384 Kbps

MediaInfo:

Общее
Полное имя : D:\NNM\Наследие костей\The.Legacy.of.the.Bones.2019.WEBRip.1080p-LQ.mkv
Формат : Matroska
Версия формата : Version 2
Размер файла : 6,27 Гбайт
Продолжительность : 2 ч. 1 м.
Режим общего битрейта : Переменный
Общий поток : 7389 Кбит/сек
Программа кодирования : libmatroska 1.4.1
Библиотека кодирования : SolveigMM Matroska Muxer Version 1.0.1904.23
Видео
Идентификатор : 1
Формат : AVC
Формат/Информация : Advanced Video Codec
Профиль формата : High@L4.1
Настройки формата : CABAC / 4 Ref Frames
Параметр CABAC формата : Да
Параметр RefFrames формата : 4 кадра
Идентификатор кодека : V_MPEG4/ISO/AVC
Продолжительность : 2 ч. 1 м.
Вид битрейта : Переменный
Битрейт : 6858 Кбит/сек
Номинальный битрейт : 8000 Кбит/сек
Максимальный битрейт : 8000 Кбит/сек
Ширина : 1920 пикселей
Высота : 804 пикселя
Соотношение сторон : 2,40:1
Режим частоты кадров : Постоянный
Частота кадров : 23,976 (24000/1001) кадра/сек
Стандарт вещания : Component
Цветовое пространство : YUV
Субдискретизация насыщенности : 4:2:0
Битовая глубина : 8 бит
Тип развёртки : Прогрессивная
Бит/(Пиксели*Кадры) : 0.185
Размер потока : 5,82 Гбайт (93%)
Default : Нет
Forced : Нет
Цветовой диапазон : Limited
Основные цвета : BT.709
Характеристики трансфера : BT.709
Коэффициенты матрицы : BT.709
Аудио
Идентификатор : 2
Формат : AC-3
Формат/Информация : Audio Coding 3
Коммерческое название : Dolby Digital
Идентификатор кодека : A_AC3
Продолжительность : 2 ч. 1 м.
Вид битрейта : Постоянный
Битрейт : 384 Кбит/сек
Каналы : 2 канала
ChannelLayout : L R
Частота : 48,0 КГц
Частота кадров : 31,250 кадров/сек (1536 SPF)
Метод сжатия : С потерями
Размер потока : 334 Мбайт (5%)
Язык : Russian
ServiceKind/String : Complete Main
Default : Нет
Forced : Нет
Скриншоты: --Релиз группа: Filmgrad.Ru ->
[filmgrad.ru].t149685.torrent 
Torrent: Registered [ 2020-07-25 12:10 ] · A2C3444C69AE1F551BDCD2348BBED69A3A51852A

Download .torrent

Download

32 KB

Status: checked
Completed: 0 times
Size: 6.27 GB
Оценка:  5 (Голосов: 1)
Поблагодарили: 0  Спасибо
terms.php
[Profile] [PM]
Display posts:    
Reply to topic

Current time is: 04-Aug 19:42

All times are UTC + 3



You cannot post new topics in this forum
You cannot reply to topics in this forum
You cannot edit your posts in this forum
You cannot delete your posts in this forum
You cannot vote in polls in this forum
You cannot attach files in this forum
You can download files in this forum